  0
SECTION
  2
HEADER
  9
$ACADVER
  1
AC1014
  9
$ACADMAINTVER
 70
     0
  9
$DWGCODEPAGE
  3
ANSI_1252
  9
$INSBASE
 10
0.0
 20
0.0
 30
0.0
  9
$EXTMIN
 10
0.0
 20
0.0
 30
0.0
  9
$EXTMAX
 10
120.0
 20
90.0
 30
0.0
  9
$LIMMIN
 10
0.0
 20
0.0
  9
$LIMMAX
 10
120.0
 20
90.0
  9
$ORTHOMODE
 70
     0
  9
$REGENMODE
 70
     1
  9
$FILLMODE
 70
     1
  9
$QTEXTMODE
 70
     0
  9
$MIRRTEXT
 70
     1
  9
$DRAGMODE
 70
     2
  9
$LTSCALE
 40
10.0
  9
$OSMODE
 70
   703
  9
$ATTMODE
 70
     1
  9
$TEXTSIZE
 40
1.0
  9
$TRACEWID
 40
0.05
  9
$TEXTSTYLE
  7
STANDARD
  9
$CLAYER
  8
0
  9
$CELTYPE
  6
BYLAYER
  9
$CECOLOR
 62
   256
  9
$CELTSCALE
 40
1.0
  9
$DELOBJ
 70
     1
  9
$DISPSILH
 70
     0
  9
$DIMSCALE
 40
5.0
  9
$DIMASZ
 40
0.18
  9
$DIMEXO
 40
0.0625
  9
$DIMDLI
 40
0.38
  9
$DIMRND
 40
0.0
  9
$DIMDLE
 40
0.0
  9
$DIMEXE
 40
0.18
  9
$DIMTP
 40
0.0
  9
$DIMTM
 40
0.0
  9
$DIMTXT
 40
0.18
  9
$DIMCEN
 40
0.09
  9
$DIMTSZ
 40
0.0
  9
$DIMTOL
 70
     0
  9
$DIMLIM
 70
     0
  9
$DIMTIH
 70
     1
  9
$DIMTOH
 70
     1
  9
$DIMSE1
 70
     0
  9
$DIMSE2
 70
     0
  9
$DIMTAD
 70
     0
  9
$DIMZIN
 70
     0
  9
$DIMBLK
  1

  9
$DIMASO
 70
     1
  9
$DIMSHO
 70
     1
  9
$DIMPOST
  1

  9
$DIMAPOST
  1

  9
$DIMALT
 70
     0
  9
$DIMALTD
 70
     2
  9
$DIMALTF
 40
25.4
  9
$DIMLFAC
 40
1.0
  9
$DIMTOFL
 70
     0
  9
$DIMTVP
 40
0.0
  9
$DIMTIX
 70
     0
  9
$DIMSOXD
 70
     0
  9
$DIMSAH
 70
     0
  9
$DIMBLK1
  1

  9
$DIMBLK2
  1

  9
$DIMSTYLE
  2
STANDARD_WS
  9
$DIMCLRD
 70
     0
  9
$DIMCLRE
 70
     0
  9
$DIMCLRT
 70
     0
  9
$DIMTFAC
 40
1.0
  9
$DIMGAP
 40
0.09
  9
$DIMJUST
 70
     0
  9
$DIMSD1
 70
     0
  9
$DIMSD2
 70
     0
  9
$DIMTOLJ
 70
     1
  9
$DIMTZIN
 70
     0
  9
$DIMALTZ
 70
     0
  9
$DIMALTTZ
 70
     0
  9
$DIMFIT
 70
     0
  9
$DIMUPT
 70
     0
  9
$DIMUNIT
 70
     2
  9
$DIMDEC
 70
     2
  9
$DIMTDEC
 70
     2
  9
$DIMALTU
 70
     2
  9
$DIMALTTD
 70
     2
  9
$DIMTXSTY
  7
STANDARD
  9
$DIMAUNIT
 70
     0
  9
$LUNITS
 70
     2
  9
$LUPREC
 70
     2
  9
$SKETCHINC
 40
0.1
  9
$FILLETRAD
 40
5.0
  9
$AUNITS
 70
     0
  9
$AUPREC
 70
     0
  9
$MENU
  1
acad
  9
$ELEVATION
 40
0.0
  9
$PELEVATION
 40
0.0
  9
$THICKNESS
 40
0.0
  9
$LIMCHECK
 70
     0
  9
$BLIPMODE
 70
     0
  9
$CHAMFERA
 40
5.0
  9
$CHAMFERB
 40
5.0
  9
$CHAMFERC
 40
10.0
  9
$CHAMFERD
 40
0.0
  9
$SKPOLY
 70
     0
  9
$TDCREATE
 40
2452161.513007870
  9
$TDUPDATE
 40
2452388.479984490
  9
$TDINDWG
 40
0.0549476852
  9
$TDUSRTIMER
 40
0.0549476852
  9
$USRTIMER
 70
     1
  9
$ANGBASE
 50
0.0
  9
$ANGDIR
 70
     0
  9
$PDMODE
 70
     0
  9
$PDSIZE
 40
0.0
  9
$PLINEWID
 40
0.0
  9
$COORDS
 70
     1
  9
$SPLFRAME
 70
     0
  9
$SPLINETYPE
 70
     6
  9
$SPLINESEGS
 70
     8
  9
$ATTDIA
 70
     0
  9
$ATTREQ
 70
     1
  9
$HANDLING
 70
     1
  9
$HANDSEED
  5
318
  9
$SURFTAB1
 70
     6
  9
$SURFTAB2
 70
     6
  9
$SURFTYPE
 70
     6
  9
$SURFU
 70
     6
  9
$SURFV
 70
     6
  9
$UCSNAME
  2

  9
$UCSORG
 10
0.0
 20
0.0
 30
0.0
  9
$UCSXDIR
 10
1.0
 20
0.0
 30
0.0
  9
$UCSYDIR
 10
0.0
 20
1.0
 30
0.0
  9
$PUCSNAME
  2

  9
$PUCSORG
 10
0.0
 20
0.0
 30
0.0
  9
$PUCSXDIR
 10
1.0
 20
0.0
 30
0.0
  9
$PUCSYDIR
 10
0.0
 20
1.0
 30
0.0
  9
$USERI1
 70
     0
  9
$USERI2
 70
     0
  9
$USERI3
 70
     0
  9
$USERI4
 70
     0
  9
$USERI5
 70
     0
  9
$USERR1
 40
0.0
  9
$USERR2
 40
0.0
  9
$USERR3
 40
0.0
  9
$USERR4
 40
0.0
  9
$USERR5
 40
0.0
  9
$WORLDVIEW
 70
     1
  9
$SHADEDGE
 70
     3
  9
$SHADEDIF
 70
    70
  9
$TILEMODE
 70
     1
  9
$MAXACTVP
 70
    48
  9
$PINSBASE
 10
0.0
 20
0.0
 30
0.0
  9
$PLIMCHECK
 70
     0
  9
$PEXTMIN
 10
1.000000E+20
 20
1.000000E+20
 30
1.000000E+20
  9
$PEXTMAX
 10
-1.000000E+20
 20
-1.000000E+20
 30
-1.000000E+20
  9
$PLIMMIN
 10
0.0
 20
0.0
  9
$PLIMMAX
 10
12.0
 20
9.0
  9
$UNITMODE
 70
     0
  9
$VISRETAIN
 70
     1
  9
$PLINEGEN
 70
     0
  9
$PSLTSCALE
 70
     1
  9
$TREEDEPTH
 70
  3020
  9
$PICKSTYLE
 70
     1
  9
$CMLSTYLE
  2
STANDARD
  9
$CMLJUST
 70
     0
  9
$CMLSCALE
 40
1.0
  9
$PROXYGRAPHICS
 70
     1
  9
$MEASUREMENT
 70
     0
  0
ENDSEC
  0
SECTION
  2
CLASSES
  0
CLASS
  1
DICTIONARYVAR
  2
AcDbDictionaryVar
  3
"AutoCAD"
 90
        0
280
     0
281
     0
  0
ENDSEC
  0
SECTION
  2
TABLES
  0
TABLE
  2
VPORT
  5
8
100
AcDbSymbolTable
 70
     1
  0
VPORT
  5
313
100
AcDbSymbolTableRecord
100
AcDbViewportTableRecord
  2
*ACTIVE
 70
     0
 10
0.0
 20
0.0
 11
1.0
 21
1.0
 12
39.149002
 22
37.924739
 13
0.0
 23
0.0
 14
5.0
 24
5.0
 15
5.0
 25
5.0
 16
0.0
 26
0.0
 36
1.0
 17
0.0
 27
0.0
 37
0.0
 40
58.076979
 41
2.132565
 42
50.0
 43
0.0
 44
0.0
 50
0.0
 51
0.0
 71
     0
 72
   100
 73
     1
 74
     1
 75
     0
 76
     0
 77
     0
 78
     0
  0
ENDTAB
  0
TABLE
  2
LTYPE
  5
5
100
AcDbSymbolTable
 70
    27
  0
LTYPE
  5
12
100
AcDbSymbolTableRecord
100
AcDbLinetypeTableRecord
  2
BYBLOCK
 70
     0
  3

 72
    65
 73
     0
 40
0.0
  0
LTYPE
  5
13
100
AcDbSymbolTableRecord
100
AcDbLinetypeTableRecord
  2
BYLAYER
 70
     0
  3

 72
    65
 73
     0
 40
0.0
  0
LTYPE
  5
14
100
AcDbSymbolTableRecord
100
AcDbLinetypeTableRecord
  2
CONTINUOUS
 70
     0
  3
Solid line
 72
    65
 73
     0
 40
0.0
  0
LTYPE
  5
54
100
AcDbSymbolTableRecord
100
AcDbLinetypeTableRecord
  2
ACAD_ISO02W100
 70
     0
  3
ISO dash __ __ __ __ __ __ __ __ __ __ __ __ __
 72
    65
 73
     2
 40
15.0
 49
12.0
 74
     0
 49
-3.0
 74
     0
  0
LTYPE
  5
55
100
AcDbSymbolTableRecord
100
AcDbLinetypeTableRecord
  2
BORDER
 70
     0
  3
Border __ __ . __ __ . __ __ . __ __ . __ __ .
 72
    65
 73
     6
 40
1.75
 49
0.5
 74
     0
 49
-0.25
 74
     0
 49
0.5
 74
     0
 49
-0.25
 74
     0
 49
0.0
 74
     0
 49
-0.25
 74
     0
  0
LTYPE
  5
56
100
AcDbSymbolTableRecord
100
AcDbLinetypeTableRecord
  2
BORDER2
 70
     0
  3
Border (.5x) __.__.__.__.__.__.__.__.__.__.__.
 72
    65
 73
     6
 40
0.875
 49
0.25
 74
     0
 49
-0.125
 74
     0
 49
0.25
 74
     0
 49
-0.125
 74
     0
 49
0.0
 74
     0
 49
-0.125
 74
     0
  0
LTYPE
  5
57
100
AcDbSymbolTableRecord
100
AcDbLinetypeTableRecord
  2
BORDERX2
 70
     0
  3
Border (2x) ____  ____  .  ____  ____  .  ___
 72
    65
 73
     6
 40
3.5
 49
1.0
 74
     0
 49
-0.5
 74
     0
 49
1.0
 74
     0
 49
-0.5
 74
     0
 49
0.0
 74
     0
 49
-0.5
 74
     0
  0
LTYPE
  5
58
100
AcDbSymbolTableRecord
100
AcDbLinetypeTableRecord
  2
CENTER
 70
     0
  3
Center ____ _ ____ _ ____ _ ____ _ ____ _ ____
 72
    65
 73
     4
 40
2.0
 49
1.25
 74
     0
 49
-0.25
 74
     0
 49
0.25
 74
     0
 49
-0.25
 74
     0
  0
LTYPE
  5
59
100
AcDbSymbolTableRecord
100
AcDbLinetypeTableRecord
  2
CENTER2
 70
     0
  3
Center (.5x) ___ _ ___ _ ___ _ ___ _ ___ _ ___
 72
    65
 73
     4
 40
1.125
 49
0.75
 74
     0
 49
-0.125
 74
     0
 49
0.125
 74
     0
 49
-0.125
 74
     0
  0
LTYPE
  5
5A
100
AcDbSymbolTableRecord
100
AcDbLinetypeTableRecord
  2
CENTERX2
 70
     0
  3
Center (2x) ________  __  ________  __  _____
 72
    65
 73
     4
 40
4.0
 49
2.5
 74
     0
 49
-0.5
 74
     0
 49
0.5
 74
     0
 49
-0.5
 74
     0
  0
LTYPE
  5
5B
100
AcDbSymbolTableRecord
100
AcDbLinetypeTableRecord
  2
DASHDOT
 70
     0
  3
Dash dot __ . __ . __ . __ . __ . __ . __ . __
 72
    65
 73
     4
 40
1.0
 49
0.5
 74
     0
 49
-0.25
 74
     0
 49
0.0
 74
     0
 49
-0.25
 74
     0
  0
LTYPE
  5
5C
100
AcDbSymbolTableRecord
100
AcDbLinetypeTableRecord
  2
DASHDOT2
 70
     0
  3
Dash dot (.5x) _._._._._._._._._._._._._._._.
 72
    65
 73
     4
 40
0.5
 49
0.25
 74
     0
 49
-0.125
 74
     0
 49
0.0
 74
     0
 49
-0.125
 74
     0
  0
LTYPE
  5
5D
100
AcDbSymbolTableRecord
100
AcDbLinetypeTableRecord
  2
DASHDOTX2
 70
     0
  3
Dash dot (2x) ____  .  ____  .  ____  .  ___
 72
    65
 73
     4
 40
2.0
 49
1.0
 74
     0
 49
-0.5
 74
     0
 49
0.0
 74
     0
 49
-0.5
 74
     0
  0
LTYPE
  5
5E
100
AcDbSymbolTableRecord
100
AcDbLinetypeTableRecord
  2
DASHED
 70
     0
  3
Dashed __ __ __ __ __ __ __ __ __ __ __ __ __ _
 72
    65
 73
     2
 40
0.75
 49
0.5
 74
     0
 49
-0.25
 74
     0
  0
LTYPE
  5
5F
100
AcDbSymbolTableRecord
100
AcDbLinetypeTableRecord
  2
DASHED2
 70
     0
  3
Dashed (.5x) _ _ _ _ _ _ _ _ _ _ _ _ _ _ _ _ _
 72
    65
 73
     2
 40
0.375
 49
0.25
 74
     0
 49
-0.125
 74
     0
  0
LTYPE
  5
60
100
AcDbSymbolTableRecord
100
AcDbLinetypeTableRecord
  2
DASHEDX2
 70
     0
  3
Dashed (2x) ____  ____  ____  ____  ____  ___
 72
    65
 73
     2
 40
1.5
 49
1.0
 74
     0
 49
-0.5
 74
     0
  0
LTYPE
  5
61
100
AcDbSymbolTableRecord
100
AcDbLinetypeTableRecord
  2
DIVIDE
 70
     0
  3
Divide ____ . . ____ . . ____ . . ____ . . ____
 72
    65
 73
     6
 40
1.25
 49
0.5
 74
     0
 49
-0.25
 74
     0
 49
0.0
 74
     0
 49
-0.25
 74
     0
 49
0.0
 74
     0
 49
-0.25
 74
     0
  0
LTYPE
  5
62
100
AcDbSymbolTableRecord
100
AcDbLinetypeTableRecord
  2
DIVIDE2
 70
     0
  3
Divide (.5x) __..__..__..__..__..__..__..__.._
 72
    65
 73
     6
 40
0.625
 49
0.25
 74
     0
 49
-0.125
 74
     0
 49
0.0
 74
     0
 49
-0.125
 74
     0
 49
0.0
 74
     0
 49
-0.125
 74
     0
  0
LTYPE
  5
63
100
AcDbSymbolTableRecord
100
AcDbLinetypeTableRecord
  2
DIVIDEX2
 70
     0
  3
Divide (2x) ________  .  .  ________  .  .  _
 72
    65
 73
     6
 40
2.5
 49
1.0
 74
     0
 49
-0.5
 74
     0
 49
0.0
 74
     0
 49
-0.5
 74
     0
 49
0.0
 74
     0
 49
-0.5
 74
     0
  0
LTYPE
  5
64
100
AcDbSymbolTableRecord
100
AcDbLinetypeTableRecord
  2
DOT
 70
     0
  3
Dot . . . . . . . . . . . . . . . . . . . . . .
 72
    65
 73
     2
 40
0.25
 49
0.0
 74
     0
 49
-0.25
 74
     0
  0
LTYPE
  5
65
100
AcDbSymbolTableRecord
100
AcDbLinetypeTableRecord
  2
DOT2
 70
     0
  3
Dot (.5x) .....................................
 72
    65
 73
     2
 40
0.125
 49
0.0
 74
     0
 49
-0.125
 74
     0
  0
LTYPE
  5
66
100
AcDbSymbolTableRecord
100
AcDbLinetypeTableRecord
  2
DOTX2
 70
     0
  3
Dot (2x) .  .  .  .  .  .  .  .  .  .  .  .  . 
 72
    65
 73
     2
 40
0.5
 49
0.0
 74
     0
 49
-0.5
 74
     0
  0
LTYPE
  5
67
100
AcDbSymbolTableRecord
100
AcDbLinetypeTableRecord
  2
HIDDEN
 70
     0
  3
Hidden __ __ __ __ __ __ __ __ __ __ __ __ __ _
 72
    65
 73
     2
 40
0.375
 49
0.25
 74
     0
 49
-0.125
 74
     0
  0
LTYPE
  5
68
100
AcDbSymbolTableRecord
100
AcDbLinetypeTableRecord
  2
HIDDEN2
 70
     0
  3
Hidden (.5x) _ _ _ _ _ _ _ _ _ _ _ _ _ _ _ _ _
 72
    65
 73
     2
 40
0.1875
 49
0.125
 74
     0
 49
-0.0625
 74
     0
  0
LTYPE
  5
69
100
AcDbSymbolTableRecord
100
AcDbLinetypeTableRecord
  2
HIDDENX2
 70
     0
  3
Hidden (2x) ____ ____ ____ ____ ____ ____ ____
 72
    65
 73
     2
 40
0.75
 49
0.5
 74
     0
 49
-0.25
 74
     0
  0
LTYPE
  5
6A
100
AcDbSymbolTableRecord
100
AcDbLinetypeTableRecord
  2
PHANTOM
 70
     0
  3
Phantom ______  __  __  ______  __  __  ______
 72
    65
 73
     6
 40
2.5
 49
1.25
 74
     0
 49
-0.25
 74
     0
 49
0.25
 74
     0
 49
-0.25
 74
     0
 49
0.25
 74
     0
 49
-0.25
 74
     0
  0
LTYPE
  5
6B
100
AcDbSymbolTableRecord
100
AcDbLinetypeTableRecord
  2
PHANTOM2
 70
     0
  3
Phantom (.5x) ___ _ _ ___ _ _ ___ _ _ ___ _ _
 72
    65
 73
     6
 40
1.25
 49
0.625
 74
     0
 49
-0.125
 74
     0
 49
0.125
 74
     0
 49
-0.125
 74
     0
 49
0.125
 74
     0
 49
-0.125
 74
     0
  0
LTYPE
  5
6C
100
AcDbSymbolTableRecord
100
AcDbLinetypeTableRecord
  2
PHANTOMX2
 70
     0
  3
Phantom (2x) ____________    ____    ____   _
 72
    65
 73
     6
 40
5.0
 49
2.5
 74
     0
 49
-0.5
 74
     0
 49
0.5
 74
     0
 49
-0.5
 74
     0
 49
0.5
 74
     0
 49
-0.5
 74
     0
  0
LTYPE
  5
6D
100
AcDbSymbolTableRecord
100
AcDbLinetypeTableRecord
  2
ZIGZAG
 70
     0
  3
Zig zag /\/\/\/\/\/\/\/\/\/\/\/\/\/\/\/\/\/\/\/
 72
    65
 73
     4
 40
0.8001
 49
0.0001
 74
     0
 49
-0.2
 74
     4
 75
   131
340
53
 46
0.2
 50
0.0
 44
-0.2
 45
0.0
 49
-0.4
 74
     4
 75
   131
340
53
 46
0.2
 50
180.0
 44
0.2
 45
0.0
 49
-0.2
 74
     0
  0
ENDTAB
  0
TABLE
  2
LAYER
  5
2
100
AcDbSymbolTable
 70
     2
  0
LAYER
  5
E
100
AcDbSymbolTableRecord
100
AcDbLayerTableRecord
  2
0
 70
     0
 62
     7
  6
CONTINUOUS
  0
LAYER
  5
93
100
AcDbSymbolTableRecord
100
AcDbLayerTableRecord
  2
DEFPOINTS
 70
     0
 62
     7
  6
CONTINUOUS
  0
ENDTAB
  0
TABLE
  2
STYLE
  5
3
100
AcDbSymbolTable
 70
     2
  0
STYLE
  5
F
100
AcDbSymbolTableRecord
100
AcDbTextStyleTableRecord
  2
STANDARD
 70
     0
 40
0.0
 41
1.0
 50
0.0
 71
     0
 42
1.0
  3
txt
  4

  0
STYLE
  5
53
100
AcDbSymbolTableRecord
100
AcDbTextStyleTableRecord
  2

 70
     1
 40
0.0
 41
1.0
 50
0.0
 71
     0
 42
2.0
  3
ltypeshp.shx
  4

  0
ENDTAB
  0
TABLE
  2
VIEW
  5
6
100
AcDbSymbolTable
 70
     0
  0
ENDTAB
  0
TABLE
  2
UCS
  5
7
100
AcDbSymbolTable
 70
     0
  0
ENDTAB
  0
TABLE
  2
APPID
  5
9
100
AcDbSymbolTable
 70
     1
  0
APPID
  5
10
100
AcDbSymbolTableRecord
100
AcDbRegAppTableRecord
  2
ACAD
 70
     0
  0
ENDTAB
  0
TABLE
  2
DIMSTYLE
  5
A
100
AcDbSymbolTable
 70
     2
  0
DIMSTYLE
105
1D
100
AcDbSymbolTableRecord
100
AcDbDimStyleTableRecord
  2
STANDARD
 70
     0
  3

  4

  5

  6

  7

 40
1.0
 41
0.18
 42
0.0625
 43
0.38
 44
0.18
 45
0.0
 46
0.0
 47
0.0
 48
0.0
140
0.18
141
0.09
142
0.0
143
25.4
144
1.0
145
0.0
146
1.0
147
0.09
 71
     0
 72
     0
 73
     1
 74
     1
 75
     0
 76
     0
 77
     0
 78
     0
170
     0
171
     2
172
     0
173
     0
174
     0
175
     0
176
     0
177
     0
178
     0
270
     2
271
     4
272
     4
273
     2
274
     2
340
F
275
     0
280
     0
281
     0
282
     0
283
     1
284
     0
285
     0
286
     0
287
     3
288
     0
  0
DIMSTYLE
105
32
102
{ACAD_REACTORS
330
162
330
170
330
17E
330
18C
330
19A
330
1A9
330
1B8
330
1C6
330
1D4
330
1E3
330
1F1
330
1FF
330
22A
330
246
330
254
330
267
330
276
330
284
330
292
330
2A0
330
2AF
330
2BE
330
2CC
330
2DA
330
2E8
102
}
100
AcDbSymbolTableRecord
100
AcDbDimStyleTableRecord
  2
STANDARD_WS
 70
     0
  3

  4

  5

  6

  7

 40
10.0
 41
0.18
 42
0.0625
 43
0.38
 44
0.18
 45
0.0
 46
0.0
 47
0.0
 48
0.0
140
0.18
141
0.09
142
0.0
143
25.4
144
1.0
145
0.0
146
1.0
147
0.09
 71
     0
 72
     0
 73
     1
 74
     1
 75
     0
 76
     0
 77
     0
 78
     0
170
     0
171
     2
172
     0
173
     0
174
     0
175
     0
176
     0
177
     0
178
     0
270
     2
271
     2
272
     2
273
     2
274
     2
340
F
275
     0
280
     0
281
     0
282
     0
283
     1
284
     0
285
     0
286
     0
287
     3
288
     0
  0
ENDTAB
  0
TABLE
  2
BLOCK_RECORD
  5
1
100
AcDbSymbolTable
 70
    25
  0
BLOCK_RECORD
  5
18
100
AcDbSymbolTableRecord
100
AcDbBlockTableRecord
  2
*MODEL_SPACE
  0
BLOCK_RECORD
  5
15
100
AcDbSymbolTableRecord
100
AcDbBlockTableRecord
  2
*PAPER_SPACE
  0
BLOCK_RECORD
  5
155
100
AcDbSymbolTableRecord
100
AcDbBlockTableRecord
  2
*D0
  0
BLOCK_RECORD
  5
163
100
AcDbSymbolTableRecord
100
AcDbBlockTableRecord
  2
*D1
  0
BLOCK_RECORD
  5
171
100
AcDbSymbolTableRecord
100
AcDbBlockTableRecord
  2
*D2
  0
BLOCK_RECORD
  5
17F
100
AcDbSymbolTableRecord
100
AcDbBlockTableRecord
  2
*D3
  0
BLOCK_RECORD
  5
18D
100
AcDbSymbolTableRecord
100
AcDbBlockTableRecord
  2
*D4
  0
BLOCK_RECORD
  5
19B
100
AcDbSymbolTableRecord
100
AcDbBlockTableRecord
  2
*D5
  0
BLOCK_RECORD
  5
1AA
100
AcDbSymbolTableRecord
100
AcDbBlockTableRecord
  2
*D6
  0
BLOCK_RECORD
  5
1B9
100
AcDbSymbolTableRecord
100
AcDbBlockTableRecord
  2
*D7
  0
BLOCK_RECORD
  5
1C7
100
AcDbSymbolTableRecord
100
AcDbBlockTableRecord
  2
*D8
  0
BLOCK_RECORD
  5
1D5
100
AcDbSymbolTableRecord
100
AcDbBlockTableRecord
  2
*D9
  0
BLOCK_RECORD
  5
1E4
100
AcDbSymbolTableRecord
100
AcDbBlockTableRecord
  2
*D10
  0
BLOCK_RECORD
  5
1F2
100
AcDbSymbolTableRecord
100
AcDbBlockTableRecord
  2
*D11
  0
BLOCK_RECORD
  5
21D
100
AcDbSymbolTableRecord
100
AcDbBlockTableRecord
  2
*D12
  0
BLOCK_RECORD
  5
239
100
AcDbSymbolTableRecord
100
AcDbBlockTableRecord
  2
*D13
  0
BLOCK_RECORD
  5
247
100
AcDbSymbolTableRecord
100
AcDbBlockTableRecord
  2
*D14
  0
BLOCK_RECORD
  5
259
100
AcDbSymbolTableRecord
100
AcDbBlockTableRecord
  2
*D15
  0
BLOCK_RECORD
  5
268
100
AcDbSymbolTableRecord
100
AcDbBlockTableRecord
  2
*D16
  0
BLOCK_RECORD
  5
277
100
AcDbSymbolTableRecord
100
AcDbBlockTableRecord
  2
*D17
  0
BLOCK_RECORD
  5
285
100
AcDbSymbolTableRecord
100
AcDbBlockTableRecord
  2
*D18
  0
BLOCK_RECORD
  5
293
100
AcDbSymbolTableRecord
100
AcDbBlockTableRecord
  2
*D19
  0
BLOCK_RECORD
  5
2A1
100
AcDbSymbolTableRecord
100
AcDbBlockTableRecord
  2
*D20
  0
BLOCK_RECORD
  5
2B0
100
AcDbSymbolTableRecord
100
AcDbBlockTableRecord
  2
*D21
  0
BLOCK_RECORD
  5
2BF
100
AcDbSymbolTableRecord
100
AcDbBlockTableRecord
  2
*D22
  0
BLOCK_RECORD
  5
2CD
100
AcDbSymbolTableRecord
100
AcDbBlockTableRecord
  2
*D23
  0
BLOCK_RECORD
  5
2DB
100
AcDbSymbolTableRecord
100
AcDbBlockTableRecord
  2
*D24
  0
ENDTAB
  0
ENDSEC
  0
SECTION
  2
BLOCKS
  0
BLOCK
  5
19
100
AcDbEntity
  8
0
100
AcDbBlockBegin
  2
*MODEL_SPACE
 70
     0
 10
0.0
 20
0.0
 30
0.0
  3
*MODEL_SPACE
  1

  0
ENDBLK
  5
1A
100
AcDbEntity
  8
0
100
AcDbBlockEnd
  0
BLOCK
  5
16
100
AcDbEntity
 67
     1
  8
0
100
AcDbBlockBegin
  2
*PAPER_SPACE
 70
     0
 10
0.0
 20
0.0
 30
0.0
  3
*PAPER_SPACE
  1

  0
ENDBLK
  5
17
100
AcDbEntity
 67
     1
  8
0
100
AcDbBlockEnd
  0
BLOCK
  5
156
100
AcDbEntity
  8
0
100
AcDbBlockBegin
  2
*D0
 70
     1
 10
0.0
 20
0.0
 30
0.0
  3
*D0
  1

  0
LINE
  5
157
100
AcDbEntity
  8
0
  6
BYBLOCK
 62
     0
100
AcDbLine
 10
26.430226
 20
73.539116
 30
0.0
 11
26.430226
 21
70.574147
 31
0.0
  0
LINE
  5
158
100
AcDbEntity
  8
0
  6
BYBLOCK
 62
     0
100
AcDbLine
 10
40.430226
 20
73.539116
 30
0.0
 11
40.430226
 21
70.574147
 31
0.0
  0
LINE
  5
159
100
AcDbEntity
  8
0
  6
BYBLOCK
 62
     0
100
AcDbLine
 10
27.330226
 20
71.474147
 30
0.0
 11
31.480226
 21
71.474147
 31
0.0
  0
LINE
  5
15A
100
AcDbEntity
  8
0
  6
BYBLOCK
 62
     0
100
AcDbLine
 10
39.530226
 20
71.474147
 30
0.0
 11
35.380226
 21
71.474147
 31
0.0
  0
SOLID
  5
15B
100
AcDbEntity
  8
0
  6
BYBLOCK
 62
     0
100
AcDbTrace
 10
27.330226
 20
71.624147
 30
0.0
 11
27.330226
 21
71.324147
 31
0.0
 12
26.430226
 22
71.474147
 32
0.0
 13
26.430226
 23
71.474147
 33
0.0
  0
SOLID
  5
15C
100
AcDbEntity
  8
0
  6
BYBLOCK
 62
     0
100
AcDbTrace
 10
39.530226
 20
71.624147
 30
0.0
 11
39.530226
 21
71.324147
 31
0.0
 12
40.430226
 22
71.474147
 32
0.0
 13
40.430226
 23
71.474147
 33
0.0
  0
MTEXT
  5
15D
100
AcDbEntity
  8
0
  6
BYBLOCK
 62
     0
100
AcDbMText
 10
33.430226
 20
71.474147
 30
0.0
 40
0.9
 41
0.0
 71
     5
 72
     1
  1
\A1;14.00
  0
POINT
  5
15E
100
AcDbEntity
  8
DEFPOINTS
  6
BYBLOCK
 62
     0
100
AcDbPoint
 10
26.430226
 20
73.851616
 30
0.0
  0
POINT
  5
15F
100
AcDbEntity
  8
DEFPOINTS
  6
BYBLOCK
 62
     0
100
AcDbPoint
 10
40.430226
 20
73.851616
 30
0.0
  0
POINT
  5
160
100
AcDbEntity
  8
DEFPOINTS
  6
BYBLOCK
 62
     0
100
AcDbPoint
 10
40.430226
 20
71.474147
 30
0.0
  0
ENDBLK
  5
161
100
AcDbEntity
  8
0
100
AcDbBlockEnd
  0
BLOCK
  5
307
100
AcDbEntity
  8
0
100
AcDbBlockBegin
  2
*D1
 70
     1
 10
0.0
 20
0.0
 30
0.0
  3
*D1
  1

  0
LINE
  5
308
100
AcDbEntity
  8
0
  6
BYBLOCK
 62
     0
100
AcDbLine
 10
80.489127
 20
59.475623
 30
0.0
 11
80.489127
 21
62.68832
 31
0.0
  0
LINE
  5
309
100
AcDbEntity
  8
0
  6
BYBLOCK
 62
     0
100
AcDbLine
 10
83.489127
 20
59.475623
 30
0.0
 11
83.489127
 21
62.68832
 31
0.0
  0
LINE
  5
30A
100
AcDbEntity
  8
0
  6
BYBLOCK
 62
     0
100
AcDbLine
 10
79.589127
 20
61.78832
 30
0.0
 11
78.689127
 21
61.78832
 31
0.0
  0
LINE
  5
30B
100
AcDbEntity
  8
0
  6
BYBLOCK
 62
     0
100
AcDbLine
 10
84.389127
 20
61.78832
 30
0.0
 11
85.289127
 21
61.78832
 31
0.0
  0
SOLID
  5
30C
100
AcDbEntity
  8
0
  6
BYBLOCK
 62
     0
100
AcDbTrace
 10
79.589127
 20
61.93832
 30
0.0
 11
79.589127
 21
61.63832
 31
0.0
 12
80.489127
 22
61.78832
 32
0.0
 13
80.489127
 23
61.78832
 33
0.0
  0
SOLID
  5
30D
100
AcDbEntity
  8
0
  6
BYBLOCK
 62
     0
100
AcDbTrace
 10
84.389127
 20
61.93832
 30
0.0
 11
84.389127
 21
61.63832
 31
0.0
 12
83.489127
 22
61.78832
 32
0.0
 13
83.489127
 23
61.78832
 33
0.0
  0
MTEXT
  5
30E
100
AcDbEntity
  8
0
  6
BYBLOCK
 62
     0
100
AcDbMText
 10
87.539127
 20
61.78832
 30
0.0
 40
0.9
 41
0.0
 71
     5
 72
     1
  1
\A1;2.375
  0
POINT
  5
30F
100
AcDbEntity
  8
DEFPOINTS
  6
BYBLOCK
 62
     0
100
AcDbPoint
 10
80.489127
 20
59.163123
 30
0.0
  0
POINT
  5
310
100
AcDbEntity
  8
DEFPOINTS
  6
BYBLOCK
 62
     0
100
AcDbPoint
 10
83.489127
 20
59.163123
 30
0.0
  0
POINT
  5
311
100
AcDbEntity
  8
DEFPOINTS
  6
BYBLOCK
 62
     0
100
AcDbPoint
 10
83.489127
 20
61.78832
 30
0.0
  0
ENDBLK
  5
312
100
AcDbEntity
  8
0
100
AcDbBlockEnd
  0
BLOCK
  5
172
100
AcDbEntity
  8
0
100
AcDbBlockBegin
  2
*D2
 70
     1
 10
0.0
 20
0.0
 30
0.0
  3
*D2
  1

  0
LINE
  5
173
100
AcDbEntity
  8
0
  6
BYBLOCK
 62
     0
100
AcDbLine
 10
55.048824
 20
81.164116
 30
0.0
 11
55.048824
 21
85.107409
 31
0.0
  0
LINE
  5
174
100
AcDbEntity
  8
0
  6
BYBLOCK
 62
     0
100
AcDbLine
 10
58.048824
 20
81.164116
 30
0.0
 11
58.048824
 21
85.107409
 31
0.0
  0
LINE
  5
175
100
AcDbEntity
  8
0
  6
BYBLOCK
 62
     0
100
AcDbLine
 10
54.148824
 20
84.207409
 30
0.0
 11
53.248824
 21
84.207409
 31
0.0
  0
LINE
  5
176
100
AcDbEntity
  8
0
  6
BYBLOCK
 62
     0
100
AcDbLine
 10
58.948824
 20
84.207409
 30
0.0
 11
59.848824
 21
84.207409
 31
0.0
  0
SOLID
  5
177
100
AcDbEntity
  8
0
  6
BYBLOCK
 62
     0
100
AcDbTrace
 10
54.148824
 20
84.357409
 30
0.0
 11
54.148824
 21
84.057409
 31
0.0
 12
55.048824
 22
84.207409
 32
0.0
 13
55.048824
 23
84.207409
 33
0.0
  0
SOLID
  5
178
100
AcDbEntity
  8
0
  6
BYBLOCK
 62
     0
100
AcDbTrace
 10
58.948824
 20
84.357409
 30
0.0
 11
58.948824
 21
84.057409
 31
0.0
 12
58.048824
 22
84.207409
 32
0.0
 13
58.048824
 23
84.207409
 33
0.0
  0
MTEXT
  5
179
100
AcDbEntity
  8
0
  6
BYBLOCK
 62
     0
100
AcDbMText
 10
61.498824
 20
84.207409
 30
0.0
 40
0.9
 41
0.0
 71
     5
 72
     1
  1
\A1;3.00
  0
POINT
  5
17A
100
AcDbEntity
  8
DEFPOINTS
  6
BYBLOCK
 62
     0
100
AcDbPoint
 10
55.048824
 20
80.851616
 30
0.0
  0
POINT
  5
17B
100
AcDbEntity
  8
DEFPOINTS
  6
BYBLOCK
 62
     0
100
AcDbPoint
 10
58.048824
 20
80.851616
 30
0.0
  0
POINT
  5
17C
100
AcDbEntity
  8
DEFPOINTS
  6
BYBLOCK
 62
     0
100
AcDbPoint
 10
58.048824
 20
84.207409
 30
0.0
  0
ENDBLK
  5
17D
100
AcDbEntity
  8
0
100
AcDbBlockEnd
  0
BLOCK
  5
180
100
AcDbEntity
  8
0
100
AcDbBlockBegin
  2
*D3
 70
     1
 10
0.0
 20
0.0
 30
0.0
  3
*D3
  1

  0
LINE
  5
181
100
AcDbEntity
  8
0
  6
BYBLOCK
 62
     0
100
AcDbLine
 10
57.048824
 20
73.539116
 30
0.0
 11
57.048824
 21
70.782889
 31
0.0
  0
LINE
  5
182
100
AcDbEntity
  8
0
  6
BYBLOCK
 62
     0
100
AcDbLine
 10
55.048824
 20
75.539116
 30
0.0
 11
55.048824
 21
70.782889
 31
0.0
  0
LINE
  5
183
100
AcDbEntity
  8
0
  6
BYBLOCK
 62
     0
100
AcDbLine
 10
57.948824
 20
71.682889
 30
0.0
 11
58.848824
 21
71.682889
 31
0.0
  0
LINE
  5
184
100
AcDbEntity
  8
0
  6
BYBLOCK
 62
     0
100
AcDbLine
 10
54.148824
 20
71.682889
 30
0.0
 11
53.248824
 21
71.682889
 31
0.0
  0
SOLID
  5
185
100
AcDbEntity
  8
0
  6
BYBLOCK
 62
     0
100
AcDbTrace
 10
57.948824
 20
71.832889
 30
0.0
 11
57.948824
 21
71.532889
 31
0.0
 12
57.048824
 22
71.682889
 32
0.0
 13
57.048824
 23
71.682889
 33
0.0
  0
SOLID
  5
186
100
AcDbEntity
  8
0
  6
BYBLOCK
 62
     0
100
AcDbTrace
 10
54.148824
 20
71.832889
 30
0.0
 11
54.148824
 21
71.532889
 31
0.0
 12
55.048824
 22
71.682889
 32
0.0
 13
55.048824
 23
71.682889
 33
0.0
  0
MTEXT
  5
187
100
AcDbEntity
  8
0
  6
BYBLOCK
 62
     0
100
AcDbMText
 10
51.598824
 20
71.682889
 30
0.0
 40
0.9
 41
0.0
 71
     5
 72
     1
  1
\A1;2.00
  0
POINT
  5
188
100
AcDbEntity
  8
DEFPOINTS
  6
BYBLOCK
 62
     0
100
AcDbPoint
 10
57.048824
 20
73.851616
 30
0.0
  0
POINT
  5
189
100
AcDbEntity
  8
DEFPOINTS
  6
BYBLOCK
 62
     0
100
AcDbPoint
 10
55.048824
 20
75.851616
 30
0.0
  0
POINT
  5
18A
100
AcDbEntity
  8
DEFPOINTS
  6
BYBLOCK
 62
     0
100
AcDbPoint
 10
55.048824
 20
71.682889
 30
0.0
  0
ENDBLK
  5
18B
100
AcDbEntity
  8
0
100
AcDbBlockEnd
  0
BLOCK
  5
18E
100
AcDbEntity
  8
0
100
AcDbBlockBegin
  2
*D4
 70
     1
 10
0.0
 20
0.0
 30
0.0
  3
*D4
  1

  0
LINE
  5
18F
100
AcDbEntity
  8
0
  6
BYBLOCK
 62
     0
100
AcDbLine
 10
57.048824
 20
73.539116
 30
0.0
 11
57.048824
 21
70.782889
 31
0.0
  0
LINE
  5
190
100
AcDbEntity
  8
0
  6
BYBLOCK
 62
     0
100
AcDbLine
 10
62.048824
 20
73.539116
 30
0.0
 11
62.048824
 21
70.782889
 31
0.0
  0
LINE
  5
191
100
AcDbEntity
  8
0
  6
BYBLOCK
 62
     0
100
AcDbLine
 10
56.148824
 20
71.682889
 30
0.0
 11
55.248824
 21
71.682889
 31
0.0
  0
LINE
  5
192
100
AcDbEntity
  8
0
  6
BYBLOCK
 62
     0
100
AcDbLine
 10
62.948824
 20
71.682889
 30
0.0
 11
63.848824
 21
71.682889
 31
0.0
  0
SOLID
  5
193
100
AcDbEntity
  8
0
  6
BYBLOCK
 62
     0
100
AcDbTrace
 10
56.148824
 20
71.832889
 30
0.0
 11
56.148824
 21
71.532889
 31
0.0
 12
57.048824
 22
71.682889
 32
0.0
 13
57.048824
 23
71.682889
 33
0.0
  0
SOLID
  5
194
100
AcDbEntity
  8
0
  6
BYBLOCK
 62
     0
100
AcDbTrace
 10
62.948824
 20
71.832889
 30
0.0
 11
62.948824
 21
71.532889
 31
0.0
 12
62.048824
 22
71.682889
 32
0.0
 13
62.048824
 23
71.682889
 33
0.0
  0
MTEXT
  5
195
100
AcDbEntity
  8
0
  6
BYBLOCK
 62
     0
100
AcDbMText
 10
65.498824
 20
71.682889
 30
0.0
 40
0.9
 41
0.0
 71
     5
 72
     1
  1
\A1;5.00
  0
POINT
  5
196
100
AcDbEntity
  8
DEFPOINTS
  6
BYBLOCK
 62
     0
100
AcDbPoint
 10
57.048824
 20
73.851616
 30
0.0
  0
POINT
  5
197
100
AcDbEntity
  8
DEFPOINTS
  6
BYBLOCK
 62
     0
100
AcDbPoint
 10
62.048824
 20
73.851616
 30
0.0
  0
POINT
  5
198
100
AcDbEntity
  8
DEFPOINTS
  6
BYBLOCK
 62
     0
100
AcDbPoint
 10
62.048824
 20
71.682889
 30
0.0
  0
ENDBLK
  5
199
100
AcDbEntity
  8
0
100
AcDbBlockEnd
  0
BLOCK
  5
19C
100
AcDbEntity
  8
0
100
AcDbBlockBegin
  2
*D5
 70
     1
 10
0.0
 20
0.0
 30
0.0
  3
*D5
  1

  0
LINE
  5
19D
100
AcDbEntity
  8
0
  6
BYBLOCK
 62
     0
100
AcDbLine
 10
26.117726
 20
75.851616
 30
0.0
 11
21.824402
 21
75.851616
 31
0.0
  0
LINE
  5
19E
100
AcDbEntity
  8
0
  6
BYBLOCK
 62
     0
100
AcDbLine
 10
26.117726
 20
73.851616
 30
0.0
 11
21.824402
 21
73.851616
 31
0.0
  0
LINE
  5
19F
100
AcDbEntity
  8
0
  6
BYBLOCK
 62
     0
100
AcDbLine
 10
22.724402
 20
76.751616
 30
0.0
 11
22.724402
 21
77.651616
 31
0.0
  0
LINE
  5
1A0
100
AcDbEntity
  8
0
  6
BYBLOCK
 62
     0
100
AcDbLine
 10
22.724402
 20
72.951616
 30
0.0
 11
22.724402
 21
72.051616
 31
0.0
  0
LINE
  5
1A1
100
AcDbEntity
  8
0
  6
BYBLOCK
 62
     0
100
AcDbLine
 10
22.724402
 20
72.051616
 30
0.0
 11
21.824402
 21
72.051616
 31
0.0
  0
SOLID
  5
1A2
100
AcDbEntity
  8
0
  6
BYBLOCK
 62
     0
100
AcDbTrace
 10
22.574402
 20
76.751616
 30
0.0
 11
22.874402
 21
76.751616
 31
0.0
 12
22.724402
 22
75.851616
 32
0.0
 13
22.724402
 23
75.851616
 33
0.0
  0
SOLID
  5
1A3
100
AcDbEntity
  8
0
  6
BYBLOCK
 62
     0
100
AcDbTrace
 10
22.574402
 20
72.951616
 30
0.0
 11
22.874402
 21
72.951616
 31
0.0
 12
22.724402
 22
73.851616
 32
0.0
 13
22.724402
 23
73.851616
 33
0.0
  0
MTEXT
  5
1A4
100
AcDbEntity
  8
0
  6
BYBLOCK
 62
     0
100
AcDbMText
 10
20.174402
 20
72.051616
 30
0.0
 40
0.9
 41
0.0
 71
     5
 72
     1
  1
\A1;2.00
  0
POINT
  5
1A5
100
AcDbEntity
  8
DEFPOINTS
  6
BYBLOCK
 62
     0
100
AcDbPoint
 10
26.430226
 20
75.851616
 30
0.0
  0
POINT
  5
1A6
100
AcDbEntity
  8
DEFPOINTS
  6
BYBLOCK
 62
     0
100
AcDbPoint
 10
26.430226
 20
73.851616
 30
0.0
  0
POINT
  5
1A7
100
AcDbEntity
  8
DEFPOINTS
  6
BYBLOCK
 62
     0
100
AcDbPoint
 10
22.724402
 20
73.851616
 30
0.0
  0
ENDBLK
  5
1A8
100
AcDbEntity
  8
0
100
AcDbBlockEnd
  0
BLOCK
  5
1AB
100
AcDbEntity
  8
0
100
AcDbBlockBegin
  2
*D6
 70
     1
 10
0.0
 20
0.0
 30
0.0
  3
*D6
  1

  0
LINE
  5
1AC
100
AcDbEntity
  8
0
  6
BYBLOCK
 62
     0
100
AcDbLine
 10
26.117726
 20
75.851616
 30
0.0
 11
20.674567
 21
75.851616
 31
0.0
  0
LINE
  5
1AD
100
AcDbEntity
  8
0
  6
BYBLOCK
 62
     0
100
AcDbLine
 10
26.117726
 20
76.851616
 30
0.0
 11
20.674567
 21
76.851616
 31
0.0
  0
LINE
  5
1AE
100
AcDbEntity
  8
0
  6
BYBLOCK
 62
     0
100
AcDbLine
 10
21.574567
 20
74.951616
 30
0.0
 11
21.574567
 21
74.051616
 31
0.0
  0
LINE
  5
1AF
100
AcDbEntity
  8
0
  6
BYBLOCK
 62
     0
100
AcDbLine
 10
21.574567
 20
77.751616
 30
0.0
 11
21.574567
 21
78.651616
 31
0.0
  0
LINE
  5
1B0
100
AcDbEntity
  8
0
  6
BYBLOCK
 62
     0
100
AcDbLine
 10
21.574567
 20
78.651616
 30
0.0
 11
22.474567
 21
78.651616
 31
0.0
  0
SOLID
  5
1B1
100
AcDbEntity
  8
0
  6
BYBLOCK
 62
     0
100
AcDbTrace
 10
21.424567
 20
74.951616
 30
0.0
 11
21.724567
 21
74.951616
 31
0.0
 12
21.574567
 22
75.851616
 32
0.0
 13
21.574567
 23
75.851616
 33
0.0
  0
SOLID
  5
1B2
100
AcDbEntity
  8
0
  6
BYBLOCK
 62
     0
100
AcDbTrace
 10
21.424567
 20
77.751616
 30
0.0
 11
21.724567
 21
77.751616
 31
0.0
 12
21.574567
 22
76.851616
 32
0.0
 13
21.574567
 23
76.851616
 33
0.0
  0
MTEXT
  5
1B3
100
AcDbEntity
  8
0
  6
BYBLOCK
 62
     0
100
AcDbMText
 10
23.974567
 20
78.651616
 30
0.0
 40
0.9
 41
0.0
 71
     5
 72
     1
  1
\A1;1.00
  0
POINT
  5
1B4
100
AcDbEntity
  8
DEFPOINTS
  6
BYBLOCK
 62
     0
100
AcDbPoint
 10
26.430226
 20
75.851616
 30
0.0
  0
POINT
  5
1B5
100
AcDbEntity
  8
DEFPOINTS
  6
BYBLOCK
 62
     0
100
AcDbPoint
 10
26.430226
 20
76.851616
 30
0.0
  0
POINT
  5
1B6
100
AcDbEntity
  8
DEFPOINTS
  6
BYBLOCK
 62
     0
100
AcDbPoint
 10
21.574567
 20
76.851616
 30
0.0
  0
ENDBLK
  5
1B7
100
AcDbEntity
  8
0
100
AcDbBlockEnd
  0
BLOCK
  5
1BA
100
AcDbEntity
  8
0
100
AcDbBlockBegin
  2
*D7
 70
     1
 10
0.0
 20
0.0
 30
0.0
  3
*D7
  1

  0
LINE
  5
1BB
100
AcDbEntity
  8
0
  6
BYBLOCK
 62
     0
100
AcDbLine
 10
40.742726
 20
73.851616
 30
0.0
 11
45.784875
 21
73.851616
 31
0.0
  0
LINE
  5
1BC
100
AcDbEntity
  8
0
  6
BYBLOCK
 62
     0
100
AcDbLine
 10
35.242726
 20
80.851616
 30
0.0
 11
45.784875
 21
80.851616
 31
0.0
  0
LINE
  5
1BD
100
AcDbEntity
  8
0
  6
BYBLOCK
 62
     0
100
AcDbLine
 10
44.884875
 20
74.751616
 30
0.0
 11
44.884875
 21
76.451616
 31
0.0
  0
LINE
  5
1BE
100
AcDbEntity
  8
0
  6
BYBLOCK
 62
     0
100
AcDbLine
 10
44.884875
 20
79.951616
 30
0.0
 11
44.884875
 21
78.251616
 31
0.0
  0
SOLID
  5
1BF
100
AcDbEntity
  8
0
  6
BYBLOCK
 62
     0
100
AcDbTrace
 10
44.734875
 20
74.751616
 30
0.0
 11
45.034875
 21
74.751616
 31
0.0
 12
44.884875
 22
73.851616
 32
0.0
 13
44.884875
 23
73.851616
 33
0.0
  0
SOLID
  5
1C0
100
AcDbEntity
  8
0
  6
BYBLOCK
 62
     0
100
AcDbTrace
 10
44.734875
 20
79.951616
 30
0.0
 11
45.034875
 21
79.951616
 31
0.0
 12
44.884875
 22
80.851616
 32
0.0
 13
44.884875
 23
80.851616
 33
0.0
  0
MTEXT
  5
1C1
100
AcDbEntity
  8
0
  6
BYBLOCK
 62
     0
100
AcDbMText
 10
44.884875
 20
77.351616
 30
0.0
 40
0.9
 41
0.0
 71
     5
 72
     1
  1
\A1;7.00
  0
POINT
  5
1C2
100
AcDbEntity
  8
DEFPOINTS
  6
BYBLOCK
 62
     0
100
AcDbPoint
 10
40.430226
 20
73.851616
 30
0.0
  0
POINT
  5
1C3
100
AcDbEntity
  8
DEFPOINTS
  6
BYBLOCK
 62
     0
100
AcDbPoint
 10
34.930226
 20
80.851616
 30
0.0
  0
POINT
  5
1C4
100
AcDbEntity
  8
DEFPOINTS
  6
BYBLOCK
 62
     0
100
AcDbPoint
 10
44.884875
 20
80.851616
 30
0.0
  0
ENDBLK
  5
1C5
100
AcDbEntity
  8
0
100
AcDbBlockEnd
  0
BLOCK
  5
1C8
100
AcDbEntity
  8
0
100
AcDbBlockBegin
  2
*D8
 70
     1
 10
0.0
 20
0.0
 30
0.0
  3
*D8
  1

  0
LINE
  5
1C9
100
AcDbEntity
  8
0
  6
BYBLOCK
 62
     0
100
AcDbLine
 10
58.361324
 20
80.851616
 30
0.0
 11
70.245018
 21
80.851616
 31
0.0
  0
LINE
  5
1CA
100
AcDbEntity
  8
0
  6
BYBLOCK
 62
     0
100
AcDbLine
 10
62.361324
 20
73.851616
 30
0.0
 11
70.245018
 21
73.851616
 31
0.0
  0
LINE
  5
1CB
100
AcDbEntity
  8
0
  6
BYBLOCK
 62
     0
100
AcDbLine
 10
69.345018
 20
79.951616
 30
0.0
 11
69.345018
 21
78.251616
 31
0.0
  0
LINE
  5
1CC
100
AcDbEntity
  8
0
  6
BYBLOCK
 62
     0
100
AcDbLine
 10
69.345018
 20
74.751616
 30
0.0
 11
69.345018
 21
76.451616
 31
0.0
  0
SOLID
  5
1CD
100
AcDbEntity
  8
0
  6
BYBLOCK
 62
     0
100
AcDbTrace
 10
69.195018
 20
79.951616
 30
0.0
 11
69.495018
 21
79.951616
 31
0.0
 12
69.345018
 22
80.851616
 32
0.0
 13
69.345018
 23
80.851616
 33
0.0
  0
SOLID
  5
1CE
100
AcDbEntity
  8
0
  6
BYBLOCK
 62
     0
100
AcDbTrace
 10
69.195018
 20
74.751616
 30
0.0
 11
69.495018
 21
74.751616
 31
0.0
 12
69.345018
 22
73.851616
 32
0.0
 13
69.345018
 23
73.851616
 33
0.0
  0
MTEXT
  5
1CF
100
AcDbEntity
  8
0
  6
BYBLOCK
 62
     0
100
AcDbMText
 10
69.345018
 20
77.351616
 30
0.0
 40
0.9
 41
0.0
 71
     5
 72
     1
  1
\A1;7.00
  0
POINT
  5
1D0
100
AcDbEntity
  8
DEFPOINTS
  6
BYBLOCK
 62
     0
100
AcDbPoint
 10
58.048824
 20
80.851616
 30
0.0
  0
POINT
  5
1D1
100
AcDbEntity
  8
DEFPOINTS
  6
BYBLOCK
 62
     0
100
AcDbPoint
 10
62.048824
 20
73.851616
 30
0.0
  0
POINT
  5
1D2
100
AcDbEntity
  8
DEFPOINTS
  6
BYBLOCK
 62
     0
100
AcDbPoint
 10
69.345018
 20
73.851616
 30
0.0
  0
ENDBLK
  5
1D3
100
AcDbEntity
  8
0
100
AcDbBlockEnd
  0
BLOCK
  5
1D6
100
AcDbEntity
  8
0
100
AcDbBlockBegin
  2
*D9
 70
     1
 10
0.0
 20
0.0
 30
0.0
  3
*D9
  1

  0
LINE
  5
1D7
100
AcDbEntity
  8
0
  6
BYBLOCK
 62
     0
100
AcDbLine
 10
62.361324
 20
73.851616
 30
0.0
 11
64.391308
 21
73.851616
 31
0.0
  0
LINE
  5
1D8
100
AcDbEntity
  8
0
  6
BYBLOCK
 62
     0
100
AcDbLine
 10
62.361324
 20
74.351616
 30
0.0
 11
64.391308
 21
74.351616
 31
0.0
  0
LINE
  5
1D9
100
AcDbEntity
  8
0
  6
BYBLOCK
 62
     0
100
AcDbLine
 10
63.491308
 20
72.951616
 30
0.0
 11
63.491308
 21
72.051616
 31
0.0
  0
LINE
  5
1DA
100
AcDbEntity
  8
0
  6
BYBLOCK
 62
     0
100
AcDbLine
 10
63.491308
 20
75.251616
 30
0.0
 11
63.491308
 21
76.151616
 31
0.0
  0
LINE
  5
1DB
100
AcDbEntity
  8
0
  6
BYBLOCK
 62
     0
100
AcDbLine
 10
63.491308
 20
76.151616
 30
0.0
 11
64.391308
 21
76.151616
 31
0.0
  0
SOLID
  5
1DC
100
AcDbEntity
  8
0
  6
BYBLOCK
 62
     0
100
AcDbTrace
 10
63.341308
 20
72.951616
 30
0.0
 11
63.641308
 21
72.951616
 31
0.0
 12
63.491308
 22
73.851616
 32
0.0
 13
63.491308
 23
73.851616
 33
0.0
  0
SOLID
  5
1DD
100
AcDbEntity
  8
0
  6
BYBLOCK
 62
     0
100
AcDbTrace
 10
63.341308
 20
75.251616
 30
0.0
 11
63.641308
 21
75.251616
 31
0.0
 12
63.491308
 22
74.351616
 32
0.0
 13
63.491308
 23
74.351616
 33
0.0
  0
MTEXT
  5
1DE
100
AcDbEntity
  8
0
  6
BYBLOCK
 62
     0
100
AcDbMText
 10
66.041308
 20
76.151616
 30
0.0
 40
0.9
 41
0.0
 71
     5
 72
     1
  1
\A1;0.50
  0
POINT
  5
1DF
100
AcDbEntity
  8
DEFPOINTS
  6
BYBLOCK
 62
     0
100
AcDbPoint
 10
62.048824
 20
73.851616
 30
0.0
  0
POINT
  5
1E0
100
AcDbEntity
  8
DEFPOINTS
  6
BYBLOCK
 62
     0
100
AcDbPoint
 10
62.048824
 20
74.351616
 30
0.0
  0
POINT
  5
1E1
100
AcDbEntity
  8
DEFPOINTS
  6
BYBLOCK
 62
     0
100
AcDbPoint
 10
63.491308
 20
74.351616
 30
0.0
  0
ENDBLK
  5
1E2
100
AcDbEntity
  8
0
100
AcDbBlockEnd
  0
BLOCK
  5
1E5
100
AcDbEntity
  8
0
100
AcDbBlockBegin
  2
*D10
 70
     1
 10
0.0
 20
0.0
 30
0.0
  3
*D10
  1

  0
LINE
  5
1E6
100
AcDbEntity
  8
0
  6
BYBLOCK
 62
     0
100
AcDbLine
 10
54.736324
 20
75.851616
 30
0.0
 11
50.465767
 21
75.851616
 31
0.0
  0
LINE
  5
1E7
100
AcDbEntity
  8
0
  6
BYBLOCK
 62
     0
100
AcDbLine
 10
54.736324
 20
80.851616
 30
0.0
 11
50.465767
 21
80.851616
 31
0.0
  0
LINE
  5
1E8
100
AcDbEntity
  8
0
  6
BYBLOCK
 62
     0
100
AcDbLine
 10
51.365767
 20
76.751616
 30
0.0
 11
51.365767
 21
77.451616
 31
0.0
  0
LINE
  5
1E9
100
AcDbEntity
  8
0
  6
BYBLOCK
 62
     0
100
AcDbLine
 10
51.365767
 20
79.951616
 30
0.0
 11
51.365767
 21
79.251616
 31
0.0
  0
SOLID
  5
1EA
100
AcDbEntity
  8
0
  6
BYBLOCK
 62
     0
100
AcDbTrace
 10
51.215767
 20
76.751616
 30
0.0
 11
51.515767
 21
76.751616
 31
0.0
 12
51.365767
 22
75.851616
 32
0.0
 13
51.365767
 23
75.851616
 33
0.0
  0
SOLID
  5
1EB
100
AcDbEntity
  8
0
  6
BYBLOCK
 62
     0
100
AcDbTrace
 10
51.215767
 20
79.951616
 30
0.0
 11
51.515767
 21
79.951616
 31
0.0
 12
51.365767
 22
80.851616
 32
0.0
 13
51.365767
 23
80.851616
 33
0.0
  0
MTEXT
  5
1EC
100
AcDbEntity
  8
0
  6
BYBLOCK
 62
     0
100
AcDbMText
 10
51.365767
 20
78.351616
 30
0.0
 40
0.9
 41
0.0
 71
     5
 72
     1
  1
\A1;5.00
  0
POINT
  5
1ED
100
AcDbEntity
  8
DEFPOINTS
  6
BYBLOCK
 62
     0
100
AcDbPoint
 10
55.048824
 20
75.851616
 30
0.0
  0
POINT
  5
1EE
100
AcDbEntity
  8
DEFPOINTS
  6
BYBLOCK
 62
     0
100
AcDbPoint
 10
55.048824
 20
80.851616
 30
0.0
  0
POINT
  5
1EF
100
AcDbEntity
  8
DEFPOINTS
  6
BYBLOCK
 62
     0
100
AcDbPoint
 10
51.365767
 20
80.851616
 30
0.0
  0
ENDBLK
  5
1F0
100
AcDbEntity
  8
0
100
AcDbBlockEnd
  0
BLOCK
  5
1F3
100
AcDbEntity
  8
0
100
AcDbBlockBegin
  2
*D11
 70
     1
 10
0.0
 20
0.0
 30
0.0
  3
*D11
  1

  0
LINE
  5
1F4
100
AcDbEntity
  8
0
  6
BYBLOCK
 62
     0
100
AcDbLine
 10
55.048824
 20
70.470389
 30
0.0
 11
55.048824
 21
67.547388
 31
0.0
  0
LINE
  5
1F5
100
AcDbEntity
  8
0
  6
BYBLOCK
 62
     0
100
AcDbLine
 10
62.048824
 20
70.470389
 30
0.0
 11
62.048824
 21
67.547388
 31
0.0
  0
LINE
  5
1F6
100
AcDbEntity
  8
0
  6
BYBLOCK
 62
     0
100
AcDbLine
 10
55.948824
 20
68.447388
 30
0.0
 11
56.898824
 21
68.447388
 31
0.0
  0
LINE
  5
1F7
100
AcDbEntity
  8
0
  6
BYBLOCK
 62
     0
100
AcDbLine
 10
61.148824
 20
68.447388
 30
0.0
 11
60.198824
 21
68.447388
 31
0.0
  0
SOLID
  5
1F8
100
AcDbEntity
  8
0
  6
BYBLOCK
 62
     0
100
AcDbTrace
 10
55.948824
 20
68.597388
 30
0.0
 11
55.948824
 21
68.297388
 31
0.0
 12
55.048824
 22
68.447388
 32
0.0
 13
55.048824
 23
68.447388
 33
0.0
  0
SOLID
  5
1F9
100
AcDbEntity
  8
0
  6
BYBLOCK
 62
     0
100
AcDbTrace
 10
61.148824
 20
68.597388
 30
0.0
 11
61.148824
 21
68.297388
 31
0.0
 12
62.048824
 22
68.447388
 32
0.0
 13
62.048824
 23
68.447388
 33
0.0
  0
MTEXT
  5
1FA
100
AcDbEntity
  8
0
  6
BYBLOCK
 62
     0
100
AcDbMText
 10
58.548824
 20
68.447388
 30
0.0
 40
0.9
 41
0.0
 71
     5
 72
     1
  1
\A1;7.00
  0
POINT
  5
1FB
100
AcDbEntity
  8
DEFPOINTS
  6
BYBLOCK
 62
     0
100
AcDbPoint
 10
55.048824
 20
70.782889
 30
0.0
  0
POINT
  5
1FC
100
AcDbEntity
  8
DEFPOINTS
  6
BYBLOCK
 62
     0
100
AcDbPoint
 10
62.048824
 20
70.782889
 30
0.0
  0
POINT
  5
1FD
100
AcDbEntity
  8
DEFPOINTS
  6
BYBLOCK
 62
     0
100
AcDbPoint
 10
62.048824
 20
68.447388
 30
0.0
  0
ENDBLK
  5
1FE
100
AcDbEntity
  8
0
100
AcDbBlockEnd
  0
BLOCK
  5
21E
100
AcDbEntity
  8
0
100
AcDbBlockBegin
  2
*D12
 70
     1
 10
0.0
 20
0.0
 30
0.0
  3
*D12
  1

  0
LINE
  5
21F
100
AcDbEntity
  8
0
  6
BYBLOCK
 62
     0
100
AcDbLine
 10
17.677912
 20
34.076724
 30
0.0
 11
5.496735
 21
34.076724
 31
0.0
  0
LINE
  5
220
100
AcDbEntity
  8
0
  6
BYBLOCK
 62
     0
100
AcDbLine
 10
17.677912
 20
53.076724
 30
0.0
 11
5.496735
 21
53.076724
 31
0.0
  0
LINE
  5
221
100
AcDbEntity
  8
0
  6
BYBLOCK
 62
     0
100
AcDbLine
 10
6.396735
 20
34.976724
 30
0.0
 11
6.396735
 21
42.676724
 31
0.0
  0
LINE
  5
222
100
AcDbEntity
  8
0
  6
BYBLOCK
 62
     0
100
AcDbLine
 10
6.396735
 20
52.176724
 30
0.0
 11
6.396735
 21
44.476724
 31
0.0
  0
SOLID
  5
223
100
AcDbEntity
  8
0
  6
BYBLOCK
 62
     0
100
AcDbTrace
 10
6.246735
 20
34.976724
 30
0.0
 11
6.546735
 21
34.976724
 31
0.0
 12
6.396735
 22
34.076724
 32
0.0
 13
6.396735
 23
34.076724
 33
0.0
  0
SOLID
  5
224
100
AcDbEntity
  8
0
  6
BYBLOCK
 62
     0
100
AcDbTrace
 10
6.246735
 20
52.176724
 30
0.0
 11
6.546735
 21
52.176724
 31
0.0
 12
6.396735
 22
53.076724
 32
0.0
 13
6.396735
 23
53.076724
 33
0.0
  0
MTEXT
  5
225
100
AcDbEntity
  8
0
  6
BYBLOCK
 62
     0
100
AcDbMText
 10
6.396735
 20
43.576724
 30
0.0
 40
0.9
 41
0.0
 71
     5
 72
     1
  1
\A1;19.00
  0
POINT
  5
226
100
AcDbEntity
  8
DEFPOINTS
  6
BYBLOCK
 62
     0
100
AcDbPoint
 10
17.990412
 20
34.076724
 30
0.0
  0
POINT
  5
227
100
AcDbEntity
  8
DEFPOINTS
  6
BYBLOCK
 62
     0
100
AcDbPoint
 10
17.990412
 20
53.076724
 30
0.0
  0
POINT
  5
228
100
AcDbEntity
  8
DEFPOINTS
  6
BYBLOCK
 62
     0
100
AcDbPoint
 10
6.396735
 20
53.076724
 30
0.0
  0
ENDBLK
  5
229
100
AcDbEntity
  8
0
100
AcDbBlockEnd
  0
BLOCK
  5
23A
100
AcDbEntity
  8
0
100
AcDbBlockBegin
  2
*D13
 70
     1
 10
0.0
 20
0.0
 30
0.0
  3
*D13
  1

  0
LINE
  5
23B
100
AcDbEntity
  8
0
  6
BYBLOCK
 62
     0
100
AcDbLine
 10
17.677912
 20
34.076724
 30
0.0
 11
14.590892
 21
34.076724
 31
0.0
  0
LINE
  5
23C
100
AcDbEntity
  8
0
  6
BYBLOCK
 62
     0
100
AcDbLine
 10
17.677912
 20
40.576724
 30
0.0
 11
14.590892
 21
40.576724
 31
0.0
  0
LINE
  5
23D
100
AcDbEntity
  8
0
  6
BYBLOCK
 62
     0
100
AcDbLine
 10
15.490892
 20
34.976724
 30
0.0
 11
15.490892
 21
36.426724
 31
0.0
  0
LINE
  5
23E
100
AcDbEntity
  8
0
  6
BYBLOCK
 62
     0
100
AcDbLine
 10
15.490892
 20
39.676724
 30
0.0
 11
15.490892
 21
38.226724
 31
0.0
  0
SOLID
  5
23F
100
AcDbEntity
  8
0
  6
BYBLOCK
 62
     0
100
AcDbTrace
 10
15.340892
 20
34.976724
 30
0.0
 11
15.640892
 21
34.976724
 31
0.0
 12
15.490892
 22
34.076724
 32
0.0
 13
15.490892
 23
34.076724
 33
0.0
  0
SOLID
  5
240
100
AcDbEntity
  8
0
  6
BYBLOCK
 62
     0
100
AcDbTrace
 10
15.340892
 20
39.676724
 30
0.0
 11
15.640892
 21
39.676724
 31
0.0
 12
15.490892
 22
40.576724
 32
0.0
 13
15.490892
 23
40.576724
 33
0.0
  0
MTEXT
  5
241
100
AcDbEntity
  8
0
  6
BYBLOCK
 62
     0
100
AcDbMText
 10
15.490892
 20
37.326724
 30
0.0
 40
0.9
 41
0.0
 71
     5
 72
     1
  1
\A1;6.50
  0
POINT
  5
242
100
AcDbEntity
  8
DEFPOINTS
  6
BYBLOCK
 62
     0
100
AcDbPoint
 10
17.990412
 20
34.076724
 30
0.0
  0
POINT
  5
243
100
AcDbEntity
  8
DEFPOINTS
  6
BYBLOCK
 62
     0
100
AcDbPoint
 10
17.990412
 20
40.576724
 30
0.0
  0
POINT
  5
244
100
AcDbEntity
  8
DEFPOINTS
  6
BYBLOCK
 62
     0
100
AcDbPoint
 10
15.490892
 20
40.576724
 30
0.0
  0
ENDBLK
  5
245
100
AcDbEntity
  8
0
100
AcDbBlockEnd
  0
BLOCK
  5
248
100
AcDbEntity
  8
0
100
AcDbBlockBegin
  2
*D14
 70
     1
 10
0.0
 20
0.0
 30
0.0
  3
*D14
  1

  0
LINE
  5
249
100
AcDbEntity
  8
0
  6
BYBLOCK
 62
     0
100
AcDbLine
 10
17.677912
 20
34.076724
 30
0.0
 11
10.827793
 21
34.076724
 31
0.0
  0
LINE
  5
24A
100
AcDbEntity
  8
0
  6
BYBLOCK
 62
     0
100
AcDbLine
 10
17.677912
 20
43.076724
 30
0.0
 11
10.827793
 21
43.076724
 31
0.0
  0
LINE
  5
24B
100
AcDbEntity
  8
0
  6
BYBLOCK
 62
     0
100
AcDbLine
 10
11.727793
 20
34.976724
 30
0.0
 11
11.727793
 21
37.676724
 31
0.0
  0
LINE
  5
24C
100
AcDbEntity
  8
0
  6
BYBLOCK
 62
     0
100
AcDbLine
 10
11.727793
 20
42.176724
 30
0.0
 11
11.727793
 21
39.476724
 31
0.0
  0
SOLID
  5
24D
100
AcDbEntity
  8
0
  6
BYBLOCK
 62
     0
100
AcDbTrace
 10
11.577793
 20
34.976724
 30
0.0
 11
11.877793
 21
34.976724
 31
0.0
 12
11.727793
 22
34.076724
 32
0.0
 13
11.727793
 23
34.076724
 33
0.0
  0
SOLID
  5
24E
100
AcDbEntity
  8
0
  6
BYBLOCK
 62
     0
100
AcDbTrace
 10
11.577793
 20
42.176724
 30
0.0
 11
11.877793
 21
42.176724
 31
0.0
 12
11.727793
 22
43.076724
 32
0.0
 13
11.727793
 23
43.076724
 33
0.0
  0
MTEXT
  5
24F
100
AcDbEntity
  8
0
  6
BYBLOCK
 62
     0
100
AcDbMText
 10
11.727793
 20
38.576724
 30
0.0
 40
0.9
 41
0.0
 71
     5
 72
     1
  1
\A1;9.00
  0
POINT
  5
250
100
AcDbEntity
  8
DEFPOINTS
  6
BYBLOCK
 62
     0
100
AcDbPoint
 10
17.990412
 20
34.076724
 30
0.0
  0
POINT
  5
251
100
AcDbEntity
  8
DEFPOINTS
  6
BYBLOCK
 62
     0
100
AcDbPoint
 10
17.990412
 20
43.076724
 30
0.0
  0
POINT
  5
252
100
AcDbEntity
  8
DEFPOINTS
  6
BYBLOCK
 62
     0
100
AcDbPoint
 10
11.727793
 20
43.076724
 30
0.0
  0
ENDBLK
  5
253
100
AcDbEntity
  8
0
100
AcDbBlockEnd
  0
BLOCK
  5
25A
100
AcDbEntity
  8
0
100
AcDbBlockBegin
  2
*D15
 70
     1
 10
0.0
 20
0.0
 30
0.0
  3
*D15
  1

  0
LINE
  5
25B
100
AcDbEntity
  8
0
  6
BYBLOCK
 62
     0
100
AcDbLine
 10
17.677912
 20
28.076724
 30
0.0
 11
15.427136
 21
28.076724
 31
0.0
  0
LINE
  5
25C
100
AcDbEntity
  8
0
  6
BYBLOCK
 62
     0
100
AcDbLine
 10
17.677912
 20
26.576724
 30
0.0
 11
15.427136
 21
26.576724
 31
0.0
  0
LINE
  5
25D
100
AcDbEntity
  8
0
  6
BYBLOCK
 62
     0
100
AcDbLine
 10
16.327136
 20
28.976724
 30
0.0
 11
16.327136
 21
29.876724
 31
0.0
  0
LINE
  5
25E
100
AcDbEntity
  8
0
  6
BYBLOCK
 62
     0
100
AcDbLine
 10
16.327136
 20
25.676724
 30
0.0
 11
16.327136
 21
24.776724
 31
0.0
  0
LINE
  5
25F
100
AcDbEntity
  8
0
  6
BYBLOCK
 62
     0
100
AcDbLine
 10
16.327136
 20
24.776724
 30
0.0
 11
15.427136
 21
24.776724
 31
0.0
  0
SOLID
  5
260
100
AcDbEntity
  8
0
  6
BYBLOCK
 62
     0
100
AcDbTrace
 10
16.177136
 20
28.976724
 30
0.0
 11
16.477136
 21
28.976724
 31
0.0
 12
16.327136
 22
28.076724
 32
0.0
 13
16.327136
 23
28.076724
 33
0.0
  0
SOLID
  5
261
100
AcDbEntity
  8
0
  6
BYBLOCK
 62
     0
100
AcDbTrace
 10
16.177136
 20
25.676724
 30
0.0
 11
16.477136
 21
25.676724
 31
0.0
 12
16.327136
 22
26.576724
 32
0.0
 13
16.327136
 23
26.576724
 33
0.0
  0
MTEXT
  5
262
100
AcDbEntity
  8
0
  6
BYBLOCK
 62
     0
100
AcDbMText
 10
13.852136
 20
24.776724
 30
0.0
 40
0.9
 41
0.0
 71
     5
 72
     1
  1
\A1;1.50
  0
POINT
  5
263
100
AcDbEntity
  8
DEFPOINTS
  6
BYBLOCK
 62
     0
100
AcDbPoint
 10
17.990412
 20
28.076724
 30
0.0
  0
POINT
  5
264
100
AcDbEntity
  8
DEFPOINTS
  6
BYBLOCK
 62
     0
100
AcDbPoint
 10
17.990412
 20
26.576724
 30
0.0
  0
POINT
  5
265
100
AcDbEntity
  8
DEFPOINTS
  6
BYBLOCK
 62
     0
100
AcDbPoint
 10
16.327136
 20
26.576724
 30
0.0
  0
ENDBLK
  5
266
100
AcDbEntity
  8
0
100
AcDbBlockEnd
  0
BLOCK
  5
269
100
AcDbEntity
  8
0
100
AcDbBlockBegin
  2
*D16
 70
     1
 10
0.0
 20
0.0
 30
0.0
  3
*D16
  1

  0
LINE
  5
26A
100
AcDbEntity
  8
0
  6
BYBLOCK
 62
     0
100
AcDbLine
 10
17.365412
 20
28.076724
 30
0.0
 11
12.082159
 21
28.076724
 31
0.0
  0
LINE
  5
26B
100
AcDbEntity
  8
0
  6
BYBLOCK
 62
     0
100
AcDbLine
 10
17.365412
 20
29.076724
 30
0.0
 11
12.082159
 21
29.076724
 31
0.0
  0
LINE
  5
26C
100
AcDbEntity
  8
0
  6
BYBLOCK
 62
     0
100
AcDbLine
 10
12.982159
 20
27.176724
 30
0.0
 11
12.982159
 21
26.276724
 31
0.0
  0
LINE
  5
26D
100
AcDbEntity
  8
0
  6
BYBLOCK
 62
     0
100
AcDbLine
 10
12.982159
 20
29.976724
 30
0.0
 11
12.982159
 21
30.876724
 31
0.0
  0
LINE
  5
26E
100
AcDbEntity
  8
0
  6
BYBLOCK
 62
     0
100
AcDbLine
 10
12.982159
 20
30.876724
 30
0.0
 11
13.882159
 21
30.876724
 31
0.0
  0
SOLID
  5
26F
100
AcDbEntity
  8
0
  6
BYBLOCK
 62
     0
100
AcDbTrace
 10
12.832159
 20
27.176724
 30
0.0
 11
13.132159
 21
27.176724
 31
0.0
 12
12.982159
 22
28.076724
 32
0.0
 13
12.982159
 23
28.076724
 33
0.0
  0
SOLID
  5
270
100
AcDbEntity
  8
0
  6
BYBLOCK
 62
     0
100
AcDbTrace
 10
12.832159
 20
29.976724
 30
0.0
 11
13.132159
 21
29.976724
 31
0.0
 12
12.982159
 22
29.076724
 32
0.0
 13
12.982159
 23
29.076724
 33
0.0
  0
MTEXT
  5
271
100
AcDbEntity
  8
0
  6
BYBLOCK
 62
     0
100
AcDbMText
 10
15.382159
 20
30.876724
 30
0.0
 40
0.9
 41
0.0
 71
     5
 72
     1
  1
\A1;1.00
  0
POINT
  5
272
100
AcDbEntity
  8
DEFPOINTS
  6
BYBLOCK
 62
     0
100
AcDbPoint
 10
17.677912
 20
28.076724
 30
0.0
  0
POINT
  5
273
100
AcDbEntity
  8
DEFPOINTS
  6
BYBLOCK
 62
     0
100
AcDbPoint
 10
17.677912
 20
29.076724
 30
0.0
  0
POINT
  5
274
100
AcDbEntity
  8
DEFPOINTS
  6
BYBLOCK
 62
     0
100
AcDbPoint
 10
12.982159
 20
29.076724
 30
0.0
  0
ENDBLK
  5
275
100
AcDbEntity
  8
0
100
AcDbBlockEnd
  0
BLOCK
  5
278
100
AcDbEntity
  8
0
100
AcDbBlockBegin
  2
*D17
 70
     1
 10
0.0
 20
0.0
 30
0.0
  3
*D17
  1

  0
LINE
  5
279
100
AcDbEntity
  8
0
  6
BYBLOCK
 62
     0
100
AcDbLine
 10
17.990412
 20
26.264224
 30
0.0
 11
17.990412
 21
23.705198
 31
0.0
  0
LINE
  5
27A
100
AcDbEntity
  8
0
  6
BYBLOCK
 62
     0
100
AcDbLine
 10
39.990412
 20
26.264224
 30
0.0
 11
39.990412
 21
23.705198
 31
0.0
  0
LINE
  5
27B
100
AcDbEntity
  8
0
  6
BYBLOCK
 62
     0
100
AcDbLine
 10
18.890412
 20
24.605198
 30
0.0
 11
26.890412
 21
24.605198
 31
0.0
  0
LINE
  5
27C
100
AcDbEntity
  8
0
  6
BYBLOCK
 62
     0
100
AcDbLine
 10
39.090412
 20
24.605198
 30
0.0
 11
31.090412
 21
24.605198
 31
0.0
  0
SOLID
  5
27D
100
AcDbEntity
  8
0
  6
BYBLOCK
 62
     0
100
AcDbTrace
 10
18.890412
 20
24.755198
 30
0.0
 11
18.890412
 21
24.455198
 31
0.0
 12
17.990412
 22
24.605198
 32
0.0
 13
17.990412
 23
24.605198
 33
0.0
  0
SOLID
  5
27E
100
AcDbEntity
  8
0
  6
BYBLOCK
 62
     0
100
AcDbTrace
 10
39.090412
 20
24.755198
 30
0.0
 11
39.090412
 21
24.455198
 31
0.0
 12
39.990412
 22
24.605198
 32
0.0
 13
39.990412
 23
24.605198
 33
0.0
  0
MTEXT
  5
27F
100
AcDbEntity
  8
0
  6
BYBLOCK
 62
     0
100
AcDbMText
 10
28.990412
 20
24.605198
 30
0.0
 40
0.9
 41
0.0
 71
     5
 72
     1
  1
\A1;22.00
  0
POINT
  5
280
100
AcDbEntity
  8
DEFPOINTS
  6
BYBLOCK
 62
     0
100
AcDbPoint
 10
17.990412
 20
26.576724
 30
0.0
  0
POINT
  5
281
100
AcDbEntity
  8
DEFPOINTS
  6
BYBLOCK
 62
     0
100
AcDbPoint
 10
39.990412
 20
26.576724
 30
0.0
  0
POINT
  5
282
100
AcDbEntity
  8
DEFPOINTS
  6
BYBLOCK
 62
     0
100
AcDbPoint
 10
39.990412
 20
24.605198
 30
0.0
  0
ENDBLK
  5
283
100
AcDbEntity
  8
0
100
AcDbBlockEnd
  0
BLOCK
  5
286
100
AcDbEntity
  8
0
100
AcDbBlockBegin
  2
*D18
 70
     1
 10
0.0
 20
0.0
 30
0.0
  3
*D18
  1

  0
LINE
  5
287
100
AcDbEntity
  8
0
  6
BYBLOCK
 62
     0
100
AcDbLine
 10
39.951035
 20
31.484074
 30
0.0
 11
39.951035
 21
30.1762
 31
0.0
  0
LINE
  5
288
100
AcDbEntity
  8
0
  6
BYBLOCK
 62
     0
100
AcDbLine
 10
43.951035
 20
31.484074
 30
0.0
 11
43.951035
 21
30.1762
 31
0.0
  0
LINE
  5
289
100
AcDbEntity
  8
0
  6
BYBLOCK
 62
     0
100
AcDbLine
 10
39.051035
 20
31.0762
 30
0.0
 11
38.151035
 21
31.0762
 31
0.0
  0
LINE
  5
28A
100
AcDbEntity
  8
0
  6
BYBLOCK
 62
     0
100
AcDbLine
 10
44.851035
 20
31.0762
 30
0.0
 11
45.751035
 21
31.0762
 31
0.0
  0
SOLID
  5
28B
100
AcDbEntity
  8
0
  6
BYBLOCK
 62
     0
100
AcDbTrace
 10
39.051035
 20
31.2262
 30
0.0
 11
39.051035
 21
30.9262
 31
0.0
 12
39.951035
 22
31.0762
 32
0.0
 13
39.951035
 23
31.0762
 33
0.0
  0
SOLID
  5
28C
100
AcDbEntity
  8
0
  6
BYBLOCK
 62
     0
100
AcDbTrace
 10
44.851035
 20
31.2262
 30
0.0
 11
44.851035
 21
30.9262
 31
0.0
 12
43.951035
 22
31.0762
 32
0.0
 13
43.951035
 23
31.0762
 33
0.0
  0
MTEXT
  5
28D
100
AcDbEntity
  8
0
  6
BYBLOCK
 62
     0
100
AcDbMText
 10
47.401035
 20
31.0762
 30
0.0
 40
0.9
 41
0.0
 71
     5
 72
     1
  1
\A1;4.00
  0
POINT
  5
28E
100
AcDbEntity
  8
DEFPOINTS
  6
BYBLOCK
 62
     0
100
AcDbPoint
 10
39.951035
 20
31.796574
 30
0.0
  0
POINT
  5
28F
100
AcDbEntity
  8
DEFPOINTS
  6
BYBLOCK
 62
     0
100
AcDbPoint
 10
43.951035
 20
31.796574
 30
0.0
  0
POINT
  5
290
100
AcDbEntity
  8
DEFPOINTS
  6
BYBLOCK
 62
     0
100
AcDbPoint
 10
43.951035
 20
31.0762
 30
0.0
  0
ENDBLK
  5
291
100
AcDbEntity
  8
0
100
AcDbBlockEnd
  0
BLOCK
  5
294
100
AcDbEntity
  8
0
100
AcDbBlockBegin
  2
*D19
 70
     1
 10
0.0
 20
0.0
 30
0.0
  3
*D19
  1

  0
LINE
  5
295
100
AcDbEntity
  8
0
  6
BYBLOCK
 62
     0
100
AcDbLine
 10
17.990412
 20
53.389224
 30
0.0
 11
17.990412
 21
57.281978
 31
0.0
  0
LINE
  5
296
100
AcDbEntity
  8
0
  6
BYBLOCK
 62
     0
100
AcDbLine
 10
65.990412
 20
53.389224
 30
0.0
 11
65.990412
 21
57.281978
 31
0.0
  0
LINE
  5
297
100
AcDbEntity
  8
0
  6
BYBLOCK
 62
     0
100
AcDbLine
 10
18.890412
 20
56.381978
 30
0.0
 11
39.890412
 21
56.381978
 31
0.0
  0
LINE
  5
298
100
AcDbEntity
  8
0
  6
BYBLOCK
 62
     0
100
AcDbLine
 10
65.090412
 20
56.381978
 30
0.0
 11
44.090412
 21
56.381978
 31
0.0
  0
SOLID
  5
299
100
AcDbEntity
  8
0
  6
BYBLOCK
 62
     0
100
AcDbTrace
 10
18.890412
 20
56.531978
 30
0.0
 11
18.890412
 21
56.231978
 31
0.0
 12
17.990412
 22
56.381978
 32
0.0
 13
17.990412
 23
56.381978
 33
0.0
  0
SOLID
  5
29A
100
AcDbEntity
  8
0
  6
BYBLOCK
 62
     0
100
AcDbTrace
 10
65.090412
 20
56.531978
 30
0.0
 11
65.090412
 21
56.231978
 31
0.0
 12
65.990412
 22
56.381978
 32
0.0
 13
65.990412
 23
56.381978
 33
0.0
  0
MTEXT
  5
29B
100
AcDbEntity
  8
0
  6
BYBLOCK
 62
     0
100
AcDbMText
 10
41.990412
 20
56.381978
 30
0.0
 40
0.9
 41
0.0
 71
     5
 72
     1
  1
\A1;48.00
  0
POINT
  5
29C
100
AcDbEntity
  8
DEFPOINTS
  6
BYBLOCK
 62
     0
100
AcDbPoint
 10
17.990412
 20
53.076724
 30
0.0
  0
POINT
  5
29D
100
AcDbEntity
  8
DEFPOINTS
  6
BYBLOCK
 62
     0
100
AcDbPoint
 10
65.990412
 20
53.076724
 30
0.0
  0
POINT
  5
29E
100
AcDbEntity
  8
DEFPOINTS
  6
BYBLOCK
 62
     0
100
AcDbPoint
 10
65.990412
 20
56.381978
 30
0.0
  0
ENDBLK
  5
29F
100
AcDbEntity
  8
0
100
AcDbBlockEnd
  0
BLOCK
  5
2A2
100
AcDbEntity
  8
0
100
AcDbBlockBegin
  2
*D20
 70
     1
 10
0.0
 20
0.0
 30
0.0
  3
*D20
  1

  0
LINE
  5
2A3
100
AcDbEntity
  8
0
  6
BYBLOCK
 62
     0
100
AcDbLine
 10
20.7901
 20
18.894219
 30
0.0
 11
19.14072
 21
18.894219
 31
0.0
  0
LINE
  5
2A4
100
AcDbEntity
  8
0
  6
BYBLOCK
 62
     0
100
AcDbLine
 10
20.7901
 20
19.434219
 30
0.0
 11
19.14072
 21
19.434219
 31
0.0
  0
LINE
  5
2A5
100
AcDbEntity
  8
0
  6
BYBLOCK
 62
     0
100
AcDbLine
 10
20.04072
 20
17.994219
 30
0.0
 11
20.04072
 21
17.094219
 31
0.0
  0
LINE
  5
2A6
100
AcDbEntity
  8
0
  6
BYBLOCK
 62
     0
100
AcDbLine
 10
20.04072
 20
20.334219
 30
0.0
 11
20.04072
 21
21.234219
 31
0.0
  0
LINE
  5
2A7
100
AcDbEntity
  8
0
  6
BYBLOCK
 62
     0
100
AcDbLine
 10
20.04072
 20
21.234219
 30
0.0
 11
20.94072
 21
21.234219
 31
0.0
  0
SOLID
  5
2A8
100
AcDbEntity
  8
0
  6
BYBLOCK
 62
     0
100
AcDbTrace
 10
19.89072
 20
17.994219
 30
0.0
 11
20.19072
 21
17.994219
 31
0.0
 12
20.04072
 22
18.894219
 32
0.0
 13
20.04072
 23
18.894219
 33
0.0
  0
SOLID
  5
2A9
100
AcDbEntity
  8
0
  6
BYBLOCK
 62
     0
100
AcDbTrace
 10
19.89072
 20
20.334219
 30
0.0
 11
20.19072
 21
20.334219
 31
0.0
 12
20.04072
 22
19.434219
 32
0.0
 13
20.04072
 23
19.434219
 33
0.0
  0
MTEXT
  5
2AA
100
AcDbEntity
  8
0
  6
BYBLOCK
 62
     0
100
AcDbMText
 10
21.84072
 20
21.234219
 30
0.0
 40
0.9
 41
0.0
 71
     5
 72
     1
  1
\A1;.5
  0
POINT
  5
2AB
100
AcDbEntity
  8
DEFPOINTS
  6
BYBLOCK
 62
     0
100
AcDbPoint
 10
21.1026
 20
18.894219
 30
0.0
  0
POINT
  5
2AC
100
AcDbEntity
  8
DEFPOINTS
  6
BYBLOCK
 62
     0
100
AcDbPoint
 10
21.1026
 20
19.434219
 30
0.0
  0
POINT
  5
2AD
100
AcDbEntity
  8
DEFPOINTS
  6
BYBLOCK
 62
     0
100
AcDbPoint
 10
20.04072
 20
19.434219
 30
0.0
  0
ENDBLK
  5
2AE
100
AcDbEntity
  8
0
100
AcDbBlockEnd
  0
BLOCK
  5
2B1
100
AcDbEntity
  8
0
100
AcDbBlockBegin
  2
*D21
 70
     1
 10
0.0
 20
0.0
 30
0.0
  3
*D21
  1

  0
LINE
  5
2B2
100
AcDbEntity
  8
0
  6
BYBLOCK
 62
     0
100
AcDbLine
 10
51.4151
 20
16.934219
 30
0.0
 11
53.391736
 21
16.934219
 31
0.0
  0
LINE
  5
2B3
100
AcDbEntity
  8
0
  6
BYBLOCK
 62
     0
100
AcDbLine
 10
51.4151
 20
19.434219
 30
0.0
 11
53.391736
 21
19.434219
 31
0.0
  0
LINE
  5
2B4
100
AcDbEntity
  8
0
  6
BYBLOCK
 62
     0
100
AcDbLine
 10
52.491736
 20
16.034219
 30
0.0
 11
52.491736
 21
15.134219
 31
0.0
  0
LINE
  5
2B5
100
AcDbEntity
  8
0
  6
BYBLOCK
 62
     0
100
AcDbLine
 10
52.491736
 20
20.334219
 30
0.0
 11
52.491736
 21
21.234219
 31
0.0
  0
LINE
  5
2B6
100
AcDbEntity
  8
0
  6
BYBLOCK
 62
     0
100
AcDbLine
 10
52.491736
 20
21.234219
 30
0.0
 11
53.391736
 21
21.234219
 31
0.0
  0
SOLID
  5
2B7
100
AcDbEntity
  8
0
  6
BYBLOCK
 62
     0
100
AcDbTrace
 10
52.341736
 20
16.034219
 30
0.0
 11
52.641736
 21
16.034219
 31
0.0
 12
52.491736
 22
16.934219
 32
0.0
 13
52.491736
 23
16.934219
 33
0.0
  0
SOLID
  5
2B8
100
AcDbEntity
  8
0
  6
BYBLOCK
 62
     0
100
AcDbTrace
 10
52.341736
 20
20.334219
 30
0.0
 11
52.641736
 21
20.334219
 31
0.0
 12
52.491736
 22
19.434219
 32
0.0
 13
52.491736
 23
19.434219
 33
0.0
  0
MTEXT
  5
2B9
100
AcDbEntity
  8
0
  6
BYBLOCK
 62
     0
100
AcDbMText
 10
55.641736
 20
21.234219
 30
0.0
 40
0.9
 41
0.0
 71
     5
 72
     1
  1
\A1;2.375
  0
POINT
  5
2BA
100
AcDbEntity
  8
DEFPOINTS
  6
BYBLOCK
 62
     0
100
AcDbPoint
 10
51.1026
 20
16.934219
 30
0.0
  0
POINT
  5
2BB
100
AcDbEntity
  8
DEFPOINTS
  6
BYBLOCK
 62
     0
100
AcDbPoint
 10
51.1026
 20
19.434219
 30
0.0
  0
POINT
  5
2BC
100
AcDbEntity
  8
DEFPOINTS
  6
BYBLOCK
 62
     0
100
AcDbPoint
 10
52.491736
 20
19.434219
 30
0.0
  0
ENDBLK
  5
2BD
100
AcDbEntity
  8
0
100
AcDbBlockEnd
  0
BLOCK
  5
2C0
100
AcDbEntity
  8
0
100
AcDbBlockBegin
  2
*D22
 70
     1
 10
0.0
 20
0.0
 30
0.0
  3
*D22
  1

  0
LINE
  5
2C1
100
AcDbEntity
  8
0
  6
BYBLOCK
 62
     0
100
AcDbLine
 10
35.1026
 20
16.621719
 30
0.0
 11
35.1026
 21
14.447064
 31
0.0
  0
LINE
  5
2C2
100
AcDbEntity
  8
0
  6
BYBLOCK
 62
     0
100
AcDbLine
 10
51.1026
 20
16.621719
 30
0.0
 11
51.1026
 21
14.447064
 31
0.0
  0
LINE
  5
2C3
100
AcDbEntity
  8
0
  6
BYBLOCK
 62
     0
100
AcDbLine
 10
36.0026
 20
15.347064
 30
0.0
 11
41.1526
 21
15.347064
 31
0.0
  0
LINE
  5
2C4
100
AcDbEntity
  8
0
  6
BYBLOCK
 62
     0
100
AcDbLine
 10
50.2026
 20
15.347064
 30
0.0
 11
45.0526
 21
15.347064
 31
0.0
  0
SOLID
  5
2C5
100
AcDbEntity
  8
0
  6
BYBLOCK
 62
     0
100
AcDbTrace
 10
36.0026
 20
15.497064
 30
0.0
 11
36.0026
 21
15.197064
 31
0.0
 12
35.1026
 22
15.347064
 32
0.0
 13
35.1026
 23
15.347064
 33
0.0
  0
SOLID
  5
2C6
100
AcDbEntity
  8
0
  6
BYBLOCK
 62
     0
100
AcDbTrace
 10
50.2026
 20
15.497064
 30
0.0
 11
50.2026
 21
15.197064
 31
0.0
 12
51.1026
 22
15.347064
 32
0.0
 13
51.1026
 23
15.347064
 33
0.0
  0
MTEXT
  5
2C7
100
AcDbEntity
  8
0
  6
BYBLOCK
 62
     0
100
AcDbMText
 10
43.1026
 20
15.347064
 30
0.0
 40
0.9
 41
0.0
 71
     5
 72
     1
  1
\A1;16.00
  0
POINT
  5
2C8
100
AcDbEntity
  8
DEFPOINTS
  6
BYBLOCK
 62
     0
100
AcDbPoint
 10
35.1026
 20
16.934219
 30
0.0
  0
POINT
  5
2C9
100
AcDbEntity
  8
DEFPOINTS
  6
BYBLOCK
 62
     0
100
AcDbPoint
 10
51.1026
 20
16.934219
 30
0.0
  0
POINT
  5
2CA
100
AcDbEntity
  8
DEFPOINTS
  6
BYBLOCK
 62
     0
100
AcDbPoint
 10
51.1026
 20
15.347064
 30
0.0
  0
ENDBLK
  5
2CB
100
AcDbEntity
  8
0
100
AcDbBlockEnd
  0
BLOCK
  5
2CE
100
AcDbEntity
  8
0
100
AcDbBlockBegin
  2
*D23
 70
     1
 10
0.0
 20
0.0
 30
0.0
  3
*D23
  1

  0
LINE
  5
2CF
100
AcDbEntity
  8
0
  6
BYBLOCK
 62
     0
100
AcDbLine
 10
21.1026
 20
18.581719
 30
0.0
 11
21.1026
 21
14.447063
 31
0.0
  0
LINE
  5
2D0
100
AcDbEntity
  8
0
  6
BYBLOCK
 62
     0
100
AcDbLine
 10
35.1026
 20
16.621719
 30
0.0
 11
35.1026
 21
14.447063
 31
0.0
  0
LINE
  5
2D1
100
AcDbEntity
  8
0
  6
BYBLOCK
 62
     0
100
AcDbLine
 10
22.0026
 20
15.347063
 30
0.0
 11
26.1526
 21
15.347063
 31
0.0
  0
LINE
  5
2D2
100
AcDbEntity
  8
0
  6
BYBLOCK
 62
     0
100
AcDbLine
 10
34.2026
 20
15.347063
 30
0.0
 11
30.0526
 21
15.347063
 31
0.0
  0
SOLID
  5
2D3
100
AcDbEntity
  8
0
  6
BYBLOCK
 62
     0
100
AcDbTrace
 10
22.0026
 20
15.497063
 30
0.0
 11
22.0026
 21
15.197063
 31
0.0
 12
21.1026
 22
15.347063
 32
0.0
 13
21.1026
 23
15.347063
 33
0.0
  0
SOLID
  5
2D4
100
AcDbEntity
  8
0
  6
BYBLOCK
 62
     0
100
AcDbTrace
 10
34.2026
 20
15.497063
 30
0.0
 11
34.2026
 21
15.197063
 31
0.0
 12
35.1026
 22
15.347063
 32
0.0
 13
35.1026
 23
15.347063
 33
0.0
  0
MTEXT
  5
2D5
100
AcDbEntity
  8
0
  6
BYBLOCK
 62
     0
100
AcDbMText
 10
28.1026
 20
15.347063
 30
0.0
 40
0.9
 41
0.0
 71
     5
 72
     1
  1
\A1;14.00
  0
POINT
  5
2D6
100
AcDbEntity
  8
DEFPOINTS
  6
BYBLOCK
 62
     0
100
AcDbPoint
 10
21.1026
 20
18.894219
 30
0.0
  0
POINT
  5
2D7
100
AcDbEntity
  8
DEFPOINTS
  6
BYBLOCK
 62
     0
100
AcDbPoint
 10
35.1026
 20
16.934219
 30
0.0
  0
POINT
  5
2D8
100
AcDbEntity
  8
DEFPOINTS
  6
BYBLOCK
 62
     0
100
AcDbPoint
 10
35.1026
 20
15.347063
 30
0.0
  0
ENDBLK
  5
2D9
100
AcDbEntity
  8
0
100
AcDbBlockEnd
  0
BLOCK
  5
2DC
100
AcDbEntity
  8
0
100
AcDbBlockBegin
  2
*D24
 70
     1
 10
0.0
 20
0.0
 30
0.0
  3
*D24
  1

  0
LINE
  5
2DD
100
AcDbEntity
  8
0
  6
BYBLOCK
 62
     0
100
AcDbLine
 10
21.1026
 20
14.134563
 30
0.0
 11
21.1026
 21
11.708908
 31
0.0
  0
LINE
  5
2DE
100
AcDbEntity
  8
0
  6
BYBLOCK
 62
     0
100
AcDbLine
 10
51.1026
 20
14.134563
 30
0.0
 11
51.1026
 21
11.708908
 31
0.0
  0
LINE
  5
2DF
100
AcDbEntity
  8
0
  6
BYBLOCK
 62
     0
100
AcDbLine
 10
22.0026
 20
12.608908
 30
0.0
 11
34.0776
 21
12.608908
 31
0.0
  0
LINE
  5
2E0
100
AcDbEntity
  8
0
  6
BYBLOCK
 62
     0
100
AcDbLine
 10
50.2026
 20
12.608908
 30
0.0
 11
38.1276
 21
12.608908
 31
0.0
  0
SOLID
  5
2E1
100
AcDbEntity
  8
0
  6
BYBLOCK
 62
     0
100
AcDbTrace
 10
22.0026
 20
12.758908
 30
0.0
 11
22.0026
 21
12.458908
 31
0.0
 12
21.1026
 22
12.608908
 32
0.0
 13
21.1026
 23
12.608908
 33
0.0
  0
SOLID
  5
2E2
100
AcDbEntity
  8
0
  6
BYBLOCK
 62
     0
100
AcDbTrace
 10
50.2026
 20
12.758908
 30
0.0
 11
50.2026
 21
12.458908
 31
0.0
 12
51.1026
 22
12.608908
 32
0.0
 13
51.1026
 23
12.608908
 33
0.0
  0
MTEXT
  5
2E3
100
AcDbEntity
  8
0
  6
BYBLOCK
 62
     0
100
AcDbMText
 10
36.1026
 20
12.608908
 30
0.0
 40
0.9
 41
0.0
 71
     5
 72
     1
  1
\A1;30.00
  0
POINT
  5
2E4
100
AcDbEntity
  8
DEFPOINTS
  6
BYBLOCK
 62
     0
100
AcDbPoint
 10
21.1026
 20
14.447063
 30
0.0
  0
POINT
  5
2E5
100
AcDbEntity
  8
DEFPOINTS
  6
BYBLOCK
 62
     0
100
AcDbPoint
 10
51.1026
 20
14.447063
 30
0.0
  0
POINT
  5
2E6
100
AcDbEntity
  8
DEFPOINTS
  6
BYBLOCK
 62
     0
100
AcDbPoint
 10
51.1026
 20
12.608908
 30
0.0
  0
ENDBLK
  5
2E7
100
AcDbEntity
  8
0
100
AcDbBlockEnd
  0
ENDSEC
  0
SECTION
  2
ENTITIES
  0
LINE
  5
34
100
AcDbEntity
  8
0
100
AcDbLine
 10
0.0
 20
0.0
 30
0.0
 11
120.0
 21
0.0
 31
0.0
  0
LINE
  5
35
100
AcDbEntity
  8
0
100
AcDbLine
 10
120.0
 20
0.0
 30
0.0
 11
120.0
 21
90.0
 31
0.0
  0
LINE
  5
36
100
AcDbEntity
  8
0
100
AcDbLine
 10
120.0
 20
90.0
 30
0.0
 11
0.0
 21
90.0
 31
0.0
  0
LINE
  5
37
100
AcDbEntity
  8
0
100
AcDbLine
 10
0.0
 20
90.0
 30
0.0
 11
0.0
 21
0.0
 31
0.0
  0
LINE
  5
3D
100
AcDbEntity
  8
0
100
AcDbLine
 10
17.990412
 20
34.076724
 30
0.0
 11
65.990412
 21
34.076724
 31
0.0
  0
LINE
  5
3E
100
AcDbEntity
  8
0
100
AcDbLine
 10
65.990412
 20
34.076724
 30
0.0
 11
65.990412
 21
53.076724
 31
0.0
  0
LINE
  5
3F
100
AcDbEntity
  8
0
100
AcDbLine
 10
65.990412
 20
53.076724
 30
0.0
 11
17.990412
 21
53.076724
 31
0.0
  0
LINE
  5
40
100
AcDbEntity
  8
0
100
AcDbLine
 10
17.990412
 20
53.076724
 30
0.0
 11
17.990412
 21
34.076724
 31
0.0
  0
LINE
  5
41
100
AcDbEntity
  8
0
  6
DASHDOT
100
AcDbLine
 10
17.990412
 20
43.076724
 30
0.0
 11
65.990412
 21
43.076724
 31
0.0
  0
LINE
  5
42
100
AcDbEntity
  8
0
 62
     1
100
AcDbLine
 10
17.990412
 20
40.576724
 30
0.0
 11
65.990412
 21
40.576724
 31
0.0
  0
LINE
  5
44
100
AcDbEntity
  8
0
100
AcDbLine
 10
17.990412
 20
29.076724
 30
0.0
 11
39.990412
 21
29.076724
 31
0.0
  0
LINE
  5
45
100
AcDbEntity
  8
0
100
AcDbLine
 10
39.990412
 20
29.076724
 30
0.0
 11
39.990412
 21
26.576724
 31
0.0
  0
LINE
  5
46
100
AcDbEntity
  8
0
100
AcDbLine
 10
39.990412
 20
26.576724
 30
0.0
 11
17.990412
 21
26.576724
 31
0.0
  0
LINE
  5
48
100
AcDbEntity
  8
0
100
AcDbLine
 10
17.990412
 20
26.576724
 30
0.0
 11
17.990412
 21
29.076724
 31
0.0
  0
LINE
  5
49
100
AcDbEntity
  8
0
100
AcDbLine
 10
39.990412
 20
28.076724
 30
0.0
 11
17.990412
 21
28.076724
 31
0.0
  0
LINE
  5
4B
100
AcDbEntity
  8
0
100
AcDbLine
 10
43.990412
 20
28.076724
 30
0.0
 11
65.990412
 21
28.076724
 31
0.0
  0
LINE
  5
4C
100
AcDbEntity
  8
0
100
AcDbLine
 10
43.990412
 20
26.576724
 30
0.0
 11
65.990412
 21
26.576724
 31
0.0
  0
LINE
  5
4D
100
AcDbEntity
  8
0
100
AcDbLine
 10
65.990412
 20
29.076724
 30
0.0
 11
43.990412
 21
29.076724
 31
0.0
  0
LINE
  5
4E
100
AcDbEntity
  8
0
100
AcDbLine
 10
65.990412
 20
26.576724
 30
0.0
 11
65.990412
 21
29.076724
 31
0.0
  0
LINE
  5
4F
100
AcDbEntity
  8
0
100
AcDbLine
 10
43.990412
 20
29.076724
 30
0.0
 11
43.990412
 21
26.576724
 31
0.0
  0
LINE
  5
50
100
AcDbEntity
  8
0
100
AcDbLine
 10
39.990412
 20
28.264224
 30
0.0
 11
17.990412
 21
28.264224
 31
0.0
  0
LINE
  5
51
100
AcDbEntity
  8
0
100
AcDbLine
 10
43.990412
 20
28.264224
 30
0.0
 11
65.990412
 21
28.264224
 31
0.0
  0
TEXT
  5
6F
100
AcDbEntity
  8
0
100
AcDbText
 10
36.444614
 20
38.890514
 30
0.0
 40
1.0
  1
SPAR LINE
100
AcDbText
  0
TEXT
  5
70
100
AcDbEntity
  8
0
100
AcDbText
 10
36.337723
 20
44.440384
 30
0.0
 40
1.0
  1
FOLD LINE
100
AcDbText
  0
LINE
  5
71
100
AcDbEntity
  8
0
100
AcDbLine
 10
74.989127
 20
52.163123
 30
0.0
 11
88.989127
 21
52.163123
 31
0.0
  0
LINE
  5
73
100
AcDbEntity
  8
0
100
AcDbLine
 10
81.989127
 20
59.163123
 30
0.0
 11
83.489127
 21
59.163123
 31
0.0
  0
LINE
  5
74
100
AcDbEntity
  8
0
100
AcDbLine
 10
81.989127
 20
59.163123
 30
0.0
 11
80.489127
 21
59.163123
 31
0.0
  0
LINE
  5
75
100
AcDbEntity
  8
0
100
AcDbLine
 10
74.989127
 20
52.163123
 30
0.0
 11
74.989127
 21
55.163123
 31
0.0
  0
LINE
  5
76
100
AcDbEntity
  8
0
100
AcDbLine
 10
74.989127
 20
55.163123
 30
0.0
 11
80.489127
 21
59.163123
 31
0.0
  0
LINE
  5
77
100
AcDbEntity
  8
0
100
AcDbLine
 10
88.989127
 20
55.163123
 30
0.0
 11
83.489127
 21
59.163123
 31
0.0
  0
LINE
  5
78
100
AcDbEntity
  8
0
100
AcDbLine
 10
88.989127
 20
52.163123
 30
0.0
 11
88.989127
 21
55.163123
 31
0.0
  0
LINE
  5
79
100
AcDbEntity
  8
0
100
AcDbLine
 10
74.989127
 20
54.163123
 30
0.0
 11
88.989127
 21
54.163123
 31
0.0
  0
LINE
  5
7A
100
AcDbEntity
  8
0
100
AcDbLine
 10
74.019613
 20
37.812304
 30
0.0
 11
74.019613
 21
42.812304
 31
0.0
  0
LINE
  5
7B
100
AcDbEntity
  8
0
100
AcDbLine
 10
74.019613
 20
42.812304
 30
0.0
 11
77.019613
 21
42.812304
 31
0.0
  0
LINE
  5
7C
100
AcDbEntity
  8
0
100
AcDbLine
 10
76.019613
 20
35.812304
 30
0.0
 11
81.019613
 21
35.812304
 31
0.0
  0
LINE
  5
7D
100
AcDbEntity
  8
0
100
AcDbLine
 10
81.019613
 20
35.812304
 30
0.0
 11
81.019613
 21
36.312304
 31
0.0
  0
LINE
  5
7E
100
AcDbEntity
  8
0
100
AcDbLine
 10
81.019613
 20
36.312304
 30
0.0
 11
77.019613
 21
42.812304
 31
0.0
  0
LINE
  5
81
100
AcDbEntity
  8
0
100
AcDbLine
 10
74.019613
 20
37.812304
 30
0.0
 11
76.019613
 21
35.812304
 31
0.0
  0
LINE
  5
82
100
AcDbEntity
  8
0
100
AcDbLine
 10
35.1026
 20
16.934219
 30
0.0
 11
51.1026
 21
16.934219
 31
0.0
  0
LINE
  5
83
100
AcDbEntity
  8
0
100
AcDbLine
 10
51.1026
 20
16.934219
 30
0.0
 11
51.1026
 21
19.434219
 31
0.0
  0
LINE
  5
84
100
AcDbEntity
  8
0
100
AcDbLine
 10
51.1026
 20
19.434219
 30
0.0
 11
21.1026
 21
19.434219
 31
0.0
  0
LINE
  5
85
100
AcDbEntity
  8
0
100
AcDbLine
 10
21.1026
 20
19.434219
 30
0.0
 11
21.1026
 21
18.894219
 31
0.0
  0
LINE
  5
88
100
AcDbEntity
  8
0
100
AcDbLine
 10
21.1026
 20
18.894219
 30
0.0
 11
35.1026
 21
16.934219
 31
0.0
  0
DIMENSION
  5
162
100
AcDbEntity
  8
0
100
AcDbDimension
  2
*D0
 10
88.989127
 20
49.785654
 30
0.0
 11
81.989127
 21
49.785654
 31
0.0
 12
48.558901
 22
-21.688493
 32
0.0
 70
    32
  3
STANDARD_WS
100
AcDbAlignedDimension
 13
74.989127
 23
52.163123
 33
0.0
 14
88.989127
 24
52.163123
 34
0.0
100
AcDbRotatedDimension
1001
ACAD
1000
DSTYLE
1002
{
1070
    40
1040
5.0
1070
   287
1070
     0
1002
}
  0
DIMENSION
  5
170
100
AcDbEntity
  8
0
100
AcDbDimension
  2
*D1
 10
83.489127
 20
61.78832
 30
0.0
 11
87.539127
 21
61.78832
 31
0.0
 70
    32
  1
2.375
  3
STANDARD_WS
100
AcDbAlignedDimension
 13
80.489127
 23
59.163123
 33
0.0
 14
83.489127
 24
59.163123
 34
0.0
100
AcDbRotatedDimension
1001
ACAD
1000
DSTYLE
1002
{
1070
    40
1040
5.0
1070
   287
1070
     0
1002
}
  0
DIMENSION
  5
17E
100
AcDbEntity
  8
0
100
AcDbDimension
  2
*D2
 10
77.019613
 20
46.168097
 30
0.0
 11
80.469613
 21
46.168097
 31
0.0
 12
18.970789
 22
-38.039312
 32
0.0
 70
    32
  3
STANDARD_WS
100
AcDbAlignedDimension
 13
74.019613
 23
42.812304
 33
0.0
 14
77.019613
 24
42.812304
 34
0.0
100
AcDbRotatedDimension
1001
ACAD
1000
DSTYLE
1002
{
1070
    40
1040
5.0
1070
   287
1070
     0
1002
}
  0
DIMENSION
  5
18C
100
AcDbEntity
  8
0
100
AcDbDimension
  2
*D3
 10
74.019613
 20
33.643577
 30
0.0
 11
70.569613
 21
33.643577
 31
0.0
 12
18.970789
 22
-38.039312
 32
0.0
 70
    32
  3
STANDARD_WS
100
AcDbAlignedDimension
 13
76.019613
 23
35.812304
 33
0.0
 14
74.019613
 24
37.812304
 34
0.0
100
AcDbRotatedDimension
1001
ACAD
1000
DSTYLE
1002
{
1070
    40
1040
5.0
1070
   287
1070
     0
1002
}
  0
DIMENSION
  5
19A
100
AcDbEntity
  8
0
100
AcDbDimension
  2
*D4
 10
81.019613
 20
33.643577
 30
0.0
 11
84.469613
 21
33.643577
 31
0.0
 12
18.970789
 22
-38.039312
 32
0.0
 70
    32
  3
STANDARD_WS
100
AcDbAlignedDimension
 13
76.019613
 23
35.812304
 33
0.0
 14
81.019613
 24
35.812304
 34
0.0
100
AcDbRotatedDimension
1001
ACAD
1000
DSTYLE
1002
{
1070
    40
1040
5.0
1070
   287
1070
     0
1002
}
  0
DIMENSION
  5
1A9
100
AcDbEntity
  8
0
100
AcDbDimension
  2
*D5
 10
71.283304
 20
52.163123
 30
0.0
 11
68.733304
 21
50.363123
 31
0.0
 12
48.558901
 22
-21.688493
 32
0.0
 70
    32
  3
STANDARD_WS
100
AcDbAlignedDimension
 13
74.989127
 23
54.163123
 33
0.0
 14
74.989127
 24
52.163123
 34
0.0
 50
90.0
100
AcDbRotatedDimension
1001
ACAD
1000
DSTYLE
1002
{
1070
    40
1040
5.0
1070
   287
1070
     0
1002
}
  0
DIMENSION
  5
1B8
100
AcDbEntity
  8
0
100
AcDbDimension
  2
*D6
 10
70.133468
 20
55.163123
 30
0.0
 11
72.533468
 21
56.963123
 31
0.0
 12
48.558901
 22
-21.688493
 32
0.0
 70
    32
  3
STANDARD_WS
100
AcDbAlignedDimension
 13
74.989127
 23
54.163123
 33
0.0
 14
74.989127
 24
55.163123
 34
0.0
 50
90.0
100
AcDbRotatedDimension
1001
ACAD
1000
DSTYLE
1002
{
1070
    40
1040
5.0
1070
   287
1070
     0
1002
}
  0
DIMENSION
  5
1C6
100
AcDbEntity
  8
0
100
AcDbDimension
  2
*D7
 10
93.443776
 20
59.163123
 30
0.0
 11
93.443776
 21
55.663123
 31
0.0
 12
48.558901
 22
-21.688493
 32
0.0
 70
    32
  3
STANDARD_WS
100
AcDbAlignedDimension
 13
88.989127
 23
52.163123
 33
0.0
 14
83.489127
 24
59.163123
 34
0.0
 50
90.0
100
AcDbRotatedDimension
1001
ACAD
1000
DSTYLE
1002
{
1070
    40
1040
5.0
1070
   287
1070
     0
1002
}
  0
DIMENSION
  5
1D4
100
AcDbEntity
  8
0
100
AcDbDimension
  2
*D8
 10
88.315807
 20
35.812304
 30
0.0
 11
88.315807
 21
39.312304
 31
0.0
 12
18.970789
 22
-38.039312
 32
0.0
 70
    32
  3
STANDARD_WS
100
AcDbAlignedDimension
 13
77.019613
 23
42.812304
 33
0.0
 14
81.019613
 24
35.812304
 34
0.0
 50
90.0
100
AcDbRotatedDimension
1001
ACAD
1000
DSTYLE
1002
{
1070
    40
1040
5.0
1070
   287
1070
     0
1002
}
  0
DIMENSION
  5
1E3
100
AcDbEntity
  8
0
100
AcDbDimension
  2
*D9
 10
82.462097
 20
36.312304
 30
0.0
 11
85.012097
 21
38.112304
 31
0.0
 12
18.970789
 22
-38.039312
 32
0.0
 70
    32
  3
STANDARD_WS
100
AcDbAlignedDimension
 13
81.019613
 23
35.812304
 33
0.0
 14
81.019613
 24
36.312304
 34
0.0
 50
90.0
100
AcDbRotatedDimension
1001
ACAD
1000
DSTYLE
1002
{
1070
    40
1040
5.0
1070
   287
1070
     0
1002
}
  0
DIMENSION
  5
1F1
100
AcDbEntity
  8
0
100
AcDbDimension
  2
*D10
 10
70.336556
 20
42.812304
 30
0.0
 11
70.336556
 21
40.312304
 31
0.0
 12
18.970789
 22
-38.039312
 32
0.0
 70
    32
  3
STANDARD_WS
100
AcDbAlignedDimension
 13
74.019613
 23
37.812304
 33
0.0
 14
74.019613
 24
42.812304
 34
0.0
 50
90.0
100
AcDbRotatedDimension
1001
ACAD
1000
DSTYLE
1002
{
1070
    40
1040
5.0
1070
   287
1070
     0
1002
}
  0
DIMENSION
  5
1FF
100
AcDbEntity
  8
0
100
AcDbDimension
  2
*D11
 10
81.019613
 20
30.408075
 30
0.0
 11
77.519613
 21
30.408075
 31
0.0
 12
18.970789
 22
-38.039312
 32
0.0
 70
    32
  3
STANDARD_WS
100
AcDbAlignedDimension
 13
74.019613
 23
32.743577
 33
0.0
 14
81.019613
 24
32.743577
 34
0.0
100
AcDbRotatedDimension
1001
ACAD
1000
DSTYLE
1002
{
1070
    40
1040
5.0
1070
   287
1070
     0
1002
}
  0
DIMENSION
  5
22A
100
AcDbEntity
  8
0
100
AcDbDimension
  2
*D12
 10
6.396735
 20
53.076724
 30
0.0
 11
6.396735
 21
43.576724
 31
0.0
 70
    32
  3
STANDARD_WS
100
AcDbAlignedDimension
 13
17.990412
 23
34.076724
 33
0.0
 14
17.990412
 24
53.076724
 34
0.0
 50
90.0
100
AcDbRotatedDimension
1001
ACAD
1000
DSTYLE
1002
{
1070
    40
1040
5.0
1070
   287
1070
     0
1002
}
  0
DIMENSION
  5
246
100
AcDbEntity
  8
0
100
AcDbDimension
  2
*D13
 10
15.490892
 20
40.576724
 30
0.0
 11
15.490892
 21
37.326724
 31
0.0
 70
    32
  3
STANDARD_WS
100
AcDbAlignedDimension
 13
17.990412
 23
34.076724
 33
0.0
 14
17.990412
 24
40.576724
 34
0.0
 50
90.0
100
AcDbRotatedDimension
1001
ACAD
1000
DSTYLE
1002
{
1070
    40
1040
5.0
1070
   287
1070
     0
1002
}
  0
DIMENSION
  5
254
100
AcDbEntity
  8
0
100
AcDbDimension
  2
*D14
 10
11.727793
 20
43.076724
 30
0.0
 11
11.727793
 21
38.576724
 31
0.0
 70
    32
  3
STANDARD_WS
100
AcDbAlignedDimension
 13
17.990412
 23
34.076724
 33
0.0
 14
17.990412
 24
43.076724
 34
0.0
 50
90.0
100
AcDbRotatedDimension
1001
ACAD
1000
DSTYLE
1002
{
1070
    40
1040
5.0
1070
   287
1070
     0
1002
}
  0
LINE
  5
255
100
AcDbEntity
  8
0
100
AcDbLine
 10
39.951035
 20
31.796574
 30
0.0
 11
43.951035
 21
31.796574
 31
0.0
  0
LINE
  5
256
100
AcDbEntity
  8
0
100
AcDbLine
 10
43.951035
 20
31.796574
 30
0.0
 11
43.951035
 21
32.796574
 31
0.0
  0
LINE
  5
257
100
AcDbEntity
  8
0
100
AcDbLine
 10
43.951035
 20
32.796574
 30
0.0
 11
39.951035
 21
32.796574
 31
0.0
  0
LINE
  5
258
100
AcDbEntity
  8
0
100
AcDbLine
 10
39.951035
 20
32.796574
 30
0.0
 11
39.951035
 21
31.796574
 31
0.0
  0
DIMENSION
  5
267
100
AcDbEntity
  8
0
100
AcDbDimension
  2
*D15
 10
16.327136
 20
26.576724
 30
0.0
 11
13.852136
 21
24.776724
 31
0.0
 70
    32
  3
STANDARD_WS
100
AcDbAlignedDimension
 13
17.990412
 23
28.076724
 33
0.0
 14
17.990412
 24
26.576724
 34
0.0
 50
90.0
100
AcDbRotatedDimension
1001
ACAD
1000
DSTYLE
1002
{
1070
    40
1040
5.0
1070
   287
1070
     0
1002
}
  0
DIMENSION
  5
276
100
AcDbEntity
  8
0
100
AcDbDimension
  2
*D16
 10
12.982159
 20
29.076724
 30
0.0
 11
15.382159
 21
30.876724
 31
0.0
 70
    32
  3
STANDARD_WS
100
AcDbAlignedDimension
 13
17.677912
 23
28.076724
 33
0.0
 14
17.677912
 24
29.076724
 34
0.0
 50
90.0
100
AcDbRotatedDimension
1001
ACAD
1000
DSTYLE
1002
{
1070
    40
1040
5.0
1070
   287
1070
     0
1002
}
  0
DIMENSION
  5
284
100
AcDbEntity
  8
0
100
AcDbDimension
  2
*D17
 10
39.990412
 20
24.605198
 30
0.0
 11
28.990412
 21
24.605198
 31
0.0
 70
    32
  3
STANDARD_WS
100
AcDbAlignedDimension
 13
17.990412
 23
26.576724
 33
0.0
 14
39.990412
 24
26.576724
 34
0.0
100
AcDbRotatedDimension
1001
ACAD
1000
DSTYLE
1002
{
1070
    40
1040
5.0
1070
   287
1070
     0
1002
}
  0
DIMENSION
  5
292
100
AcDbEntity
  8
0
100
AcDbDimension
  2
*D18
 10
43.951035
 20
31.0762
 30
0.0
 11
47.401035
 21
31.0762
 31
0.0
 70
    32
  3
STANDARD_WS
100
AcDbAlignedDimension
 13
39.951035
 23
31.796574
 33
0.0
 14
43.951035
 24
31.796574
 34
0.0
100
AcDbRotatedDimension
1001
ACAD
1000
DSTYLE
1002
{
1070
    40
1040
5.0
1070
   287
1070
     0
1002
}
  0
DIMENSION
  5
2A0
100
AcDbEntity
  8
0
100
AcDbDimension
  2
*D19
 10
65.990412
 20
56.381978
 30
0.0
 11
41.990412
 21
56.381978
 31
0.0
 70
    32
  3
STANDARD_WS
100
AcDbAlignedDimension
 13
17.990412
 23
53.076724
 33
0.0
 14
65.990412
 24
53.076724
 34
0.0
100
AcDbRotatedDimension
1001
ACAD
1000
DSTYLE
1002
{
1070
    40
1040
5.0
1070
   287
1070
     0
1002
}
  0
DIMENSION
  5
2AF
100
AcDbEntity
  8
0
100
AcDbDimension
  2
*D20
 10
20.04072
 20
19.434219
 30
0.0
 11
21.84072
 21
21.234219
 31
0.0
 70
    32
  1
.5
  3
STANDARD_WS
100
AcDbAlignedDimension
 13
21.1026
 23
18.894219
 33
0.0
 14
21.1026
 24
19.434219
 34
0.0
 50
90.0
100
AcDbRotatedDimension
1001
ACAD
1000
DSTYLE
1002
{
1070
    40
1040
5.0
1070
   287
1070
     0
1002
}
  0
DIMENSION
  5
2BE
100
AcDbEntity
  8
0
100
AcDbDimension
  2
*D21
 10
52.491736
 20
19.434219
 30
0.0
 11
55.641736
 21
21.234219
 31
0.0
 70
    32
  1
2.375
  3
STANDARD_WS
100
AcDbAlignedDimension
 13
51.1026
 23
16.934219
 33
0.0
 14
51.1026
 24
19.434219
 34
0.0
 50
90.0
100
AcDbRotatedDimension
1001
ACAD
1000
DSTYLE
1002
{
1070
    40
1040
5.0
1070
   287
1070
     0
1002
}
  0
DIMENSION
  5
2CC
100
AcDbEntity
  8
0
100
AcDbDimension
  2
*D22
 10
51.1026
 20
15.347064
 30
0.0
 11
43.1026
 21
15.347064
 31
0.0
 70
    32
  3
STANDARD_WS
100
AcDbAlignedDimension
 13
35.1026
 23
16.934219
 33
0.0
 14
51.1026
 24
16.934219
 34
0.0
100
AcDbRotatedDimension
1001
ACAD
1000
DSTYLE
1002
{
1070
    40
1040
5.0
1070
   287
1070
     0
1002
}
  0
DIMENSION
  5
2DA
100
AcDbEntity
  8
0
100
AcDbDimension
  2
*D23
 10
35.1026
 20
15.347063
 30
0.0
 11
28.1026
 21
15.347063
 31
0.0
 70
    32
  3
STANDARD_WS
100
AcDbAlignedDimension
 13
21.1026
 23
18.894219
 33
0.0
 14
35.1026
 24
16.934219
 34
0.0
100
AcDbRotatedDimension
1001
ACAD
1000
DSTYLE
1002
{
1070
    40
1040
5.0
1070
   287
1070
     0
1002
}
  0
DIMENSION
  5
2E8
100
AcDbEntity
  8
0
100
AcDbDimension
  2
*D24
 10
51.1026
 20
12.608908
 30
0.0
 11
36.1026
 21
12.608908
 31
0.0
 70
    32
  3
STANDARD_WS
100
AcDbAlignedDimension
 13
21.1026
 23
14.447063
 33
0.0
 14
51.1026
 24
14.447063
 34
0.0
100
AcDbRotatedDimension
1001
ACAD
1000
DSTYLE
1002
{
1070
    40
1040
5.0
1070
   287
1070
     0
1002
}
  0
LINE
  5
2EE
100
AcDbEntity
  8
0
100
AcDbLine
 10
67.361122
 20
20.326859
 30
0.0
 11
77.361122
 21
20.326859
 31
0.0
  0
LINE
  5
2EF
100
AcDbEntity
  8
0
100
AcDbLine
 10
77.361122
 20
20.326859
 30
0.0
 11
87.361122
 21
20.326859
 31
0.0
  0
LINE
  5
2F0
100
AcDbEntity
  8
0
100
AcDbLine
 10
87.361122
 20
20.326859
 30
0.0
 11
87.361122
 21
27.826859
 31
0.0
  0
LINE
  5
2F1
100
AcDbEntity
  8
0
100
AcDbLine
 10
87.361122
 20
27.826859
 30
0.0
 11
67.361122
 21
27.826859
 31
0.0
  0
LINE
  5
2F2
100
AcDbEntity
  8
0
100
AcDbLine
 10
67.361122
 20
27.826859
 30
0.0
 11
67.361122
 21
20.326859
 31
0.0
  0
LINE
  5
2F3
100
AcDbEntity
  8
0
100
AcDbLine
 10
77.361122
 20
20.326859
 30
0.0
 11
77.361122
 21
27.826859
 31
0.0
  0
LINE
  5
2F4
100
AcDbEntity
  8
0
100
AcDbLine
 10
69.713381
 20
22.539532
 30
0.0
 11
83.713381
 21
22.539532
 31
0.0
  0
LINE
  5
2F5
100
AcDbEntity
  8
0
100
AcDbLine
 10
69.713381
 20
20.539532
 30
0.0
 11
83.713381
 21
20.539532
 31
0.0
  0
LINE
  5
2F6
100
AcDbEntity
  8
0
100
AcDbLine
 10
69.713381
 20
20.539532
 30
0.0
 11
69.713381
 21
23.539532
 31
0.0
  0
LINE
  5
2F7
100
AcDbEntity
  8
0
100
AcDbLine
 10
83.713381
 20
20.539532
 30
0.0
 11
83.713381
 21
23.539532
 31
0.0
  0
LINE
  5
2F8
100
AcDbEntity
  8
0
100
AcDbLine
 10
83.713381
 20
23.539532
 30
0.0
 11
78.213381
 21
27.539532
 31
0.0
  0
LINE
  5
2F9
100
AcDbEntity
  8
0
100
AcDbLine
 10
69.713381
 20
23.539532
 30
0.0
 11
75.213381
 21
27.539532
 31
0.0
  0
LINE
  5
2FA
100
AcDbEntity
  8
0
100
AcDbLine
 10
76.713381
 20
27.539532
 30
0.0
 11
75.213381
 21
27.539532
 31
0.0
  0
LINE
  5
2FB
100
AcDbEntity
  8
0
100
AcDbLine
 10
76.713381
 20
27.539532
 30
0.0
 11
78.213381
 21
27.539532
 31
0.0
  0
LINE
  5
2FD
100
AcDbEntity
  8
0
100
AcDbLine
 10
69.873714
 20
19.337575
 30
0.0
 11
72.873714
 21
19.337575
 31
0.0
  0
LINE
  5
2FE
100
AcDbEntity
  8
0
100
AcDbLine
 10
69.873714
 20
14.337575
 30
0.0
 11
69.873714
 21
19.337575
 31
0.0
  0
LINE
  5
2FF
100
AcDbEntity
  8
0
100
AcDbLine
 10
76.873714
 20
12.837575
 30
0.0
 11
72.873714
 21
19.337575
 31
0.0
  0
LINE
  5
300
100
AcDbEntity
  8
0
100
AcDbLine
 10
71.873714
 20
12.337575
 30
0.0
 11
76.873714
 21
12.337575
 31
0.0
  0
LINE
  5
301
100
AcDbEntity
  8
0
100
AcDbLine
 10
76.873714
 20
12.337575
 30
0.0
 11
76.873714
 21
12.837575
 31
0.0
  0
LINE
  5
302
100
AcDbEntity
  8
0
100
AcDbLine
 10
69.873714
 20
14.337575
 30
0.0
 11
71.873714
 21
12.337575
 31
0.0
  0
LINE
  5
303
100
AcDbEntity
  8
0
100
AcDbLine
 10
77.533714
 20
19.641262
 30
0.0
 11
67.533714
 21
19.641262
 31
0.0
  0
LINE
  5
304
100
AcDbEntity
  8
0
100
AcDbLine
 10
77.533714
 20
12.141262
 30
0.0
 11
77.533714
 21
19.641262
 31
0.0
  0
LINE
  5
305
100
AcDbEntity
  8
0
100
AcDbLine
 10
67.533714
 20
12.141262
 30
0.0
 11
77.533714
 21
12.141262
 31
0.0
  0
LINE
  5
306
100
AcDbEntity
  8
0
100
AcDbLine
 10
67.533714
 20
19.641262
 30
0.0
 11
67.533714
 21
12.141262
 31
0.0
  0
ENDSEC
  0
SECTION
  2
OBJECTS
  0
DICTIONARY
  5
C
100
AcDbDictionary
  3
ACAD_GROUP
350
D
  3
ACAD_MLINESTYLE
350
1B
  3
ACDBVARIABLEDICTIONARY
350
30
  0
DICTIONARY
  5
D
102
{ACAD_REACTORS
330
C
102
}
100
AcDbDictionary
  0
DICTIONARY
  5
1B
102
{ACAD_REACTORS
330
C
102
}
100
AcDbDictionary
  3
STANDARD
350
1C
  0
DICTIONARY
  5
30
102
{ACAD_REACTORS
330
C
102
}
100
AcDbDictionary
  3
DIMADEC
350
31
  0
MLINESTYLE
  5
1C
102
{ACAD_REACTORS
330
1B
102
}
100
AcDbMlineStyle
  2
STANDARD
 70
     0
  3

 62
   256
 51
90.0
 52
90.0
 71
     2
 49
0.5
 62
   256
  6
BYLAYER
 49
-0.5
 62
   256
  6
BYLAYER
  0
DICTIONARYVAR
  5
31
102
{ACAD_REACTORS
330
30
102
}
100
DictionaryVariables
280
     0
  1
0
  0
ENDSEC
  0
EOF
