  0
SECTION
  2
HEADER
  9
$ACADVER
  1
AC1009
  9
$INSBASE
 10
0.0
 20
0.0
 30
0.0
  9
$EXTMIN
 10
92.645310930687643
 20
87.317257716227942
 30
0.0
  9
$EXTMAX
 10
150.7527000270693
 20
172.68502186769661
 30
0.0
  9
$LIMMIN
 10
0.0
 20
0.0
  9
$LIMMAX
 10
22.0
 20
17.0
  9
$ORTHOMODE
 70
     0
  9
$REGENMODE
 70
     1
  9
$FILLMODE
 70
     1
  9
$QTEXTMODE
 70
     0
  9
$MIRRTEXT
 70
     0
  9
$DRAGMODE
 70
     2
  9
$LTSCALE
 40
1.0
  9
$OSMODE
 70
    39
  9
$ATTMODE
 70
     1
  9
$TEXTSIZE
 40
4.0
  9
$TRACEWID
 40
0.05
  9
$TEXTSTYLE
  7
ROMANS
  9
$CLAYER
  8
DIM
  9
$CELTYPE
  6
BYLAYER
  9
$CECOLOR
 62
   256
  9
$DIMSCALE
 40
4.0
  9
$DIMASZ
 40
0.18
  9
$DIMEXO
 40
0.0625
  9
$DIMDLI
 40
0.38
  9
$DIMRND
 40
0.0
  9
$DIMDLE
 40
0.0
  9
$DIMEXE
 40
0.125
  9
$DIMTP
 40
0.0
  9
$DIMTM
 40
0.0
  9
$DIMTXT
 40
0.125
  9
$DIMCEN
 40
-0.09
  9
$DIMTSZ
 40
0.0
  9
$DIMTOL
 70
     0
  9
$DIMLIM
 70
     0
  9
$DIMTIH
 70
     1
  9
$DIMTOH
 70
     0
  9
$DIMSE1
 70
     0
  9
$DIMSE2
 70
     0
  9
$DIMTAD
 70
     0
  9
$DIMZIN
 70
     7
  9
$DIMBLK
  1

  9
$DIMASO
 70
     1
  9
$DIMSHO
 70
     1
  9
$DIMPOST
  1
"
  9
$DIMAPOST
  1

  9
$DIMALT
 70
     0
  9
$DIMALTD
 70
     2
  9
$DIMALTF
 40
25.399999999999999
  9
$DIMLFAC
 40
1.0
  9
$DIMTOFL
 70
     0
  9
$DIMTVP
 40
0.0
  9
$DIMTIX
 70
     0
  9
$DIMSOXD
 70
     0
  9
$DIMSAH
 70
     0
  9
$DIMBLK1
  1

  9
$DIMBLK2
  1

  9
$DIMSTYLE
  2
STANDARD
  9
$DIMCLRD
 70
     0
  9
$DIMCLRE
 70
     0
  9
$DIMCLRT
 70
     0
  9
$DIMTFAC
 40
1.0
  9
$DIMGAP
 40
0.09
  9
$LUNITS
 70
     2
  9
$LUPREC
 70
     4
  9
$SKETCHINC
 40
0.1
  9
$FILLETRAD
 40
0.75
  9
$AUNITS
 70
     0
  9
$AUPREC
 70
     0
  9
$MENU
  1
.
  9
$ELEVATION
 40
0.0
  9
$PELEVATION
 40
0.0
  9
$THICKNESS
 40
0.0
  9
$LIMCHECK
 70
     0
  9
$BLIPMODE
 70
     0
  9
$CHAMFERA
 40
0.0
  9
$CHAMFERB
 40
0.0
  9
$SKPOLY
 70
     0
  9
$TDCREATE
 40
2452143.3573012841
  9
$TDUPDATE
 40
2452143.762035185
  9
$TDINDWG
 40
0.0786394907
  9
$TDUSRTIMER
 40
0.078639375
  9
$USRTIMER
 70
     1
  9
$ANGBASE
 50
0.0
  9
$ANGDIR
 70
     0
  9
$PDMODE
 70
     0
  9
$PDSIZE
 40
0.0
  9
$PLINEWID
 40
0.0
  9
$COORDS
 70
     1
  9
$SPLFRAME
 70
     0
  9
$SPLINETYPE
 70
     6
  9
$SPLINESEGS
 70
     8
  9
$ATTDIA
 70
     1
  9
$ATTREQ
 70
     1
  9
$HANDLING
 70
 12289
  9
$HANDSEED
  5
1143
  9
$SURFTAB1
 70
     6
  9
$SURFTAB2
 70
     6
  9
$SURFTYPE
 70
     6
  9
$SURFU
 70
     6
  9
$SURFV
 70
     6
  9
$UCSNAME
  2

  9
$UCSORG
 10
0.0
 20
0.0
 30
0.0
  9
$UCSXDIR
 10
1.0
 20
0.0
 30
0.0
  9
$UCSYDIR
 10
0.0
 20
1.0
 30
0.0
  9
$PUCSNAME
  2

  9
$PUCSORG
 10
0.0
 20
0.0
 30
0.0
  9
$PUCSXDIR
 10
1.0
 20
0.0
 30
0.0
  9
$PUCSYDIR
 10
0.0
 20
1.0
 30
0.0
  9
$USERI1
 70
     0
  9
$USERI2
 70
     0
  9
$USERI3
 70
     0
  9
$USERI4
 70
     0
  9
$USERI5
 70
     0
  9
$USERR1
 40
0.0
  9
$USERR2
 40
0.0
  9
$USERR3
 40
0.0
  9
$USERR4
 40
0.0
  9
$USERR5
 40
0.0
  9
$WORLDVIEW
 70
     1
  9
$SHADEDGE
 70
     3
  9
$SHADEDIF
 70
    70
  9
$TILEMODE
 70
     1
  9
$MAXACTVP
 70
    16
  9
$PLIMCHECK
 70
     0
  9
$PEXTMIN
 10
1.0000000000000000E+020
 20
1.0000000000000000E+020
 30
1.0000000000000000E+020
  9
$PEXTMAX
 10
-1.0000000000000000E+020
 20
-1.0000000000000000E+020
 30
-1.0000000000000000E+020
  9
$PLIMMIN
 10
0.0
 20
0.0
  9
$PLIMMAX
 10
12.0
 20
9.0
  9
$UNITMODE
 70
     0
  9
$VISRETAIN
 70
     0
  9
$PLINEGEN
 70
     0
  9
$PSLTSCALE
 70
     1
  0
ENDSEC
  0
SECTION
  2
TABLES
  0
TABLE
  2
VPORT
 70
     3
  0
VPORT
  2
*ACTIVE
 70
     0
 10
0.0
 20
0.0
 11
1.0
 21
1.0
 12
133.72503844035231
 22
130.01385318936579
 13
0.0
 23
0.0
 14
1.0
 24
1.0
 15
0.0
 25
0.0
 16
0.0
 26
0.0
 36
1.0
 17
0.0
 27
0.0
 37
0.0
 40
86.007918101185808
 41
1.6973913043478259
 42
50.0
 43
0.0
 44
0.0
 50
0.0
 51
0.0
 71
     0
 72
   100
 73
     1
 74
     0
 75
     0
 76
     0
 77
     0
 78
     0
  0
ENDTAB
  0
TABLE
  2
LTYPE
 70
     8
  0
LTYPE
  2
CONTINUOUS
 70
     0
  3
Solid line
 72
    65
 73
     0
 40
0.0
  0
LTYPE
  2
AMCONSTR
 70
     0
  3
_______________________
 72
    65
 73
     2
 40
9999.0
 49
9999.0
 49
0.0
  0
LTYPE
  2
HIDDEN
 70
     0
  3
Hidden __ __ __ __ __ __ __ __ __ __ __ __ __ _
 72
    65
 73
     2
 40
0.375
 49
0.25
 49
-0.125
  0
LTYPE
  2
CENTER
 70
     0
  3
Center ____ _ ____ _ ____ _ ____ _ ____ _ ____
 72
    65
 73
     4
 40
2.0
 49
1.25
 49
-0.25
 49
0.25
 49
-0.25
  0
LTYPE
  2
PHANTOM2
 70
     0
  3
Phantom (.5x) ___ _ _ ___ _ _ ___ _ _ ___ _ _
 72
    65
 73
     6
 40
1.25
 49
0.625
 49
-0.125
 49
0.125
 49
-0.125
 49
0.125
 49
-0.125
  0
LTYPE
  2
HIDDEN2
 70
     0
  3
Hidden (.5x) _ _ _ _ _ _ _ _ _ _ _ _ _ _ _ _ _
 72
    65
 73
     2
 40
0.1875
 49
0.125
 49
-0.0625
  0
LTYPE
  2
CENTER2
 70
     0
  3
Center (.5x) ___ _ ___ _ ___ _ ___ _ ___ _ ___
 72
    65
 73
     4
 40
1.125
 49
0.75
 49
-0.125
 49
0.125
 49
-0.125
  0
LTYPE
  2
AMZIGZAG2
 70
     0
  3
/\/-/\/-/\/-/\/-/\/-/\/
 72
    65
 73
     2
 40
0.4401
 49
0.0001
 49
-0.4400000000000001
  0
ENDTAB
  0
TABLE
  2
LAYER
 70
    10
  0
LAYER
  2
0
 70
     0
 62
     7
  6
CONTINUOUS
  0
LAYER
  2
DIM
 70
     0
 62
     7
  6
CONTINUOUS
  0
LAYER
  2
WING
 70
     0
 62
     5
  6
CONTINUOUS
  0
LAYER
  2
DEFPOINTS
 70
     0
 62
     7
  6
CONTINUOUS
  0
LAYER
  2
SPAR
 70
     0
 62
     2
  6
CONTINUOUS
  0
LAYER
  2
AILERONS
 70
     0
 62
     1
  6
CONTINUOUS
  0
LAYER
  2
RUDDER
 70
     0
 62
     4
  6
CONTINUOUS
  0
LAYER
  2
ELEVATOR
 70
     0
 62
     3
  6
CONTINUOUS
  0
LAYER
  2
FUSELAGE
 70
     0
 62
     5
  6
CONTINUOUS
  0
LAYER
  2
WINGSADDLE
 70
     0
 62
    30
  6
CONTINUOUS
  0
ENDTAB
  0
TABLE
  2
STYLE
 70
     3
  0
STYLE
  2
STANDARD
 70
     0
 40
0.0
 41
1.0
 50
0.0
 71
     0
 42
0.125
  3
txt
  4

  0
STYLE
  2
ROMANS
 70
     0
 40
0.0
 41
1.0
 50
0.0
 71
     0
 42
4.0
  3
ROMANS.SHX
  4

  0
STYLE
  2

 70
     1
 40
0.0
 41
1.0
 50
0.0
 71
     0
 42
4.0
  3
ltypeshp.shx
  4

  0
ENDTAB
  0
TABLE
  2
VIEW
 70
     0
  0
ENDTAB
  0
TABLE
  2
UCS
 70
     0
  0
ENDTAB
  0
TABLE
  2
APPID
 70
     6
  0
APPID
  2
ACAD
 70
     0
  0
APPID
  2
MCAD_NO_VIS
 70
     0
  0
APPID
  2
ACAD_TEMP_GRAPHIC
 70
     0
  0
APPID
  2
GENIUS_GENREC_14
 70
     0
  0
APPID
  2
GENIUS_GENODEF_13
 70
     0
  0
APPID
  2
GENIUS_GENOBJ-N-REC_13
 70
     0
  0
ENDTAB
  0
TABLE
  2
DIMSTYLE
 70
     1
  0
DIMSTYLE
  2
STANDARD
 70
     0
  3
"
  4

  5

  6

  7

 40
4.0
 41
0.18
 42
0.0625
 43
0.38
 44
0.125
 45
0.0
 46
0.0
 47
0.0
 48
0.0
140
0.125
141
-0.09
142
0.0
143
25.399999999999999
144
1.0
145
0.0
146
1.0
147
0.09
 71
     0
 72
     0
 73
     1
 74
     0
 75
     0
 76
     0
 77
     0
 78
     7
170
     0
171
     2
172
     0
173
     0
174
     0
175
     0
176
     0
177
     0
178
     0
  0
ENDTAB
  0
ENDSEC
  0
SECTION
  2
BLOCKS
  0
BLOCK
  8
0
  2
$MODEL_SPACE
 70
     0
 10
0.0
 20
0.0
 30
0.0
  3
$MODEL_SPACE
  1

  0
ENDBLK
  5
1C
  8
0
  0
BLOCK
 67
     1
  8
0
  2
$PAPER_SPACE
 70
     0
 10
0.0
 20
0.0
 30
0.0
  3
$PAPER_SPACE
  1

  0
ENDBLK
  5
19
 67
     1
  8
0
  0
BLOCK
  8
0
  2
*D0
 70
     1
 10
0.0
 20
0.0
 30
0.0
  3
*D0
  1

  0
LINE
  5
A25
  8
DIM
 62
     0
 10
104.014383287393
 20
148.03325815451419
 30
0.0
 11
104.014383287393
 21
140.7909906020094
 31
0.0
  0
LINE
  5
A26
  8
DIM
 62
     0
 10
144.01438328739289
 20
148.03325815451419
 30
0.0
 11
144.01438328739289
 21
140.7909906020094
 31
0.0
  0
LINE
  5
A27
  8
DIM
 62
     0
 10
104.7343832873929
 20
141.2909906020094
 30
0.0
 11
123.0710499540596
 21
141.2909906020094
 31
0.0
  0
LINE
  5
A28
  8
DIM
 62
     0
 10
143.294383287393
 20
141.2909906020094
 30
0.0
 11
124.9577166207263
 21
141.2909906020094
 31
0.0
  0
SOLID
  5
A29
  8
DIM
 62
     0
 10
104.7343832873929
 20
141.41099060200941
 30
0.0
 11
104.7343832873929
 21
141.17099060200931
 31
0.0
 12
104.014383287393
 22
141.2909906020094
 32
0.0
 13
104.014383287393
 23
141.2909906020094
 33
0.0
  0
SOLID
  5
A2A
  8
DIM
 62
     0
 10
143.294383287393
 20
141.41099060200941
 30
0.0
 11
143.294383287393
 21
141.17099060200931
 31
0.0
 12
144.01438328739289
 22
141.2909906020094
 32
0.0
 13
144.01438328739289
 23
141.2909906020094
 33
0.0
  0
TEXT
  5
A2B
  8
DIM
 62
     0
 10
123.3596213826311
 20
141.0409906020094
 30
0.0
 40
0.5
  1
40"
  7
ROMANS
  0
POINT
  5
A2C
  8
DEFPOINTS
 62
     0
 10
104.014383287393
 20
148.28325815451419
 30
0.0
  0
POINT
  5
A2D
  8
DEFPOINTS
 62
     0
 10
144.01438328739289
 20
148.28325815451419
 30
0.0
  0
POINT
  5
A2E
  8
DEFPOINTS
 62
     0
 10
144.01438328739289
 20
141.2909906020094
 30
0.0
  0
ENDBLK
  5
6DC
  8
0
  0
BLOCK
  8
0
  2
*D1
 70
     1
 10
0.0
 20
0.0
 30
0.0
  3
*D1
  1

  0
LINE
  5
B9E
  8
DIM
 62
     0
 10
100.014383287393
 20
146.03325815451419
 30
0.0
 11
100.014383287393
 21
139.2216287405962
 31
0.0
  0
LINE
  5
B9F
  8
DIM
 62
     0
 10
148.01438328739289
 20
146.03325815451419
 30
0.0
 11
148.01438328739289
 21
139.2216287405962
 31
0.0
  0
LINE
  5
BA0
  8
DIM
 62
     0
 10
100.734383287393
 20
139.7216287405962
 30
0.0
 11
123.0710499540596
 21
139.7216287405962
 31
0.0
  0
LINE
  5
BA1
  8
DIM
 62
     0
 10
147.294383287393
 20
139.7216287405962
 30
0.0
 11
124.9577166207263
 21
139.7216287405962
 31
0.0
  0
SOLID
  5
BA2
  8
DIM
 62
     0
 10
100.734383287393
 20
139.84162874059621
 30
0.0
 11
100.734383287393
 21
139.6016287405962
 31
0.0
 12
100.014383287393
 22
139.7216287405962
 32
0.0
 13
100.014383287393
 23
139.7216287405962
 33
0.0
  0
SOLID
  5
BA3
  8
DIM
 62
     0
 10
147.294383287393
 20
139.84162874059621
 30
0.0
 11
147.294383287393
 21
139.6016287405962
 31
0.0
 12
148.01438328739289
 22
139.7216287405962
 32
0.0
 13
148.01438328739289
 23
139.7216287405962
 33
0.0
  0
TEXT
  5
BA4
  8
DIM
 62
     0
 10
123.3596213826311
 20
139.4716287405962
 30
0.0
 40
0.5
  1
48"
  7
ROMANS
  0
POINT
  5
BA5
  8
DEFPOINTS
 62
     0
 10
100.014383287393
 20
146.28325815451419
 30
0.0
  0
POINT
  5
BA6
  8
DEFPOINTS
 62
     0
 10
148.01438328739289
 20
146.28325815451419
 30
0.0
  0
POINT
  5
BA7
  8
DEFPOINTS
 62
     0
 10
148.01438328739289
 20
139.7216287405962
 30
0.0
  0
ENDBLK
  5
708
  8
0
  0
BLOCK
  8
0
  2
*D2
 70
     1
 10
0.0
 20
0.0
 30
0.0
  3
*D2
  1

  0
LINE
  5
A39
  8
DIM
 62
     0
 10
99.764383287393017
 20
146.28325815451419
 30
0.0
 11
96.562790292274499
 21
146.28325815451419
 31
0.0
  0
LINE
  5
A3A
  8
DIM
 62
     0
 10
103.764383287393
 20
148.28325815451419
 30
0.0
 11
96.562790292274499
 21
148.28325815451419
 31
0.0
  0
LINE
  5
A3B
  8
DIM
 62
     0
 10
97.062790292274514
 20
145.56325815451419
 30
0.0
 11
97.062790292274514
 21
144.84325815451419
 31
0.0
  0
LINE
  5
A3C
  8
DIM
 62
     0
 10
97.062790292274514
 20
149.00325815451421
 30
0.0
 11
97.062790292274514
 21
149.72325815451421
 31
0.0
  0
SOLID
  5
A3D
  8
DIM
 62
     0
 10
96.942790292274495
 20
145.56325815451419
 30
0.0
 11
97.182790292274504
 21
145.56325815451419
 31
0.0
 12
97.062790292274514
 22
146.28325815451419
 32
0.0
 13
97.062790292274514
 23
146.28325815451419
 33
0.0
  0
SOLID
  5
A3E
  8
DIM
 62
     0
 10
96.942790292274495
 20
149.00325815451421
 30
0.0
 11
97.182790292274504
 21
149.00325815451421
 31
0.0
 12
97.062790292274514
 22
148.28325815451419
 32
0.0
 13
97.062790292274514
 23
148.28325815451419
 33
0.0
  0
TEXT
  5
A3F
  8
DIM
 62
     0
 10
96.646123625607814
 20
147.03325815451419
 30
0.0
 40
0.5
  1
2"
  7
ROMANS
  0
POINT
  5
A40
  8
DEFPOINTS
 62
     0
 10
100.014383287393
 20
146.28325815451419
 30
0.0
  0
POINT
  5
A41
  8
DEFPOINTS
 62
     0
 10
104.014383287393
 20
148.28325815451419
 30
0.0
  0
POINT
  5
A42
  8
DEFPOINTS
 62
     0
 10
97.062790292274514
 20
148.28325815451419
 30
0.0
  0
ENDBLK
  5
716
  8
0
  0
BLOCK
  8
0
  2
*D3
 70
     1
 10
0.0
 20
0.0
 30
0.0
  3
*D3
  1

  0
LINE
  5
BA8
  8
DIM
 62
     0
 10
99.764383287393017
 20
146.28325815451419
 30
0.0
 11
95.168438882462851
 21
146.28325815451419
 31
0.0
  0
LINE
  5
BA9
  8
DIM
 62
     0
 10
99.764383287393002
 20
153.2832581545141
 30
0.0
 11
95.168438882462851
 21
153.2832581545141
 31
0.0
  0
LINE
  5
BAA
  8
DIM
 62
     0
 10
95.668438882462851
 20
147.00325815451421
 30
0.0
 11
95.668438882462851
 21
149.12563910689511
 31
0.0
  0
LINE
  5
BAB
  8
DIM
 62
     0
 10
95.668438882462851
 20
152.5632581545141
 30
0.0
 11
95.668438882462851
 21
150.44087720213321
 31
0.0
  0
SOLID
  5
BAC
  8
DIM
 62
     0
 10
95.548438882462847
 20
147.00325815451421
 30
0.0
 11
95.788438882462856
 21
147.00325815451421
 31
0.0
 12
95.668438882462851
 22
146.28325815451419
 32
0.0
 13
95.668438882462851
 23
146.28325815451419
 33
0.0
  0
SOLID
  5
BAD
  8
DIM
 62
     0
 10
95.548438882462847
 20
152.5632581545141
 30
0.0
 11
95.788438882462856
 21
152.5632581545141
 31
0.0
 12
95.668438882462851
 22
153.2832581545141
 32
0.0
 13
95.668438882462851
 23
153.2832581545141
 33
0.0
  0
TEXT
  5
BAE
  8
DIM
 62
     0
 10
95.251772215796166
 20
149.53325815451419
 30
0.0
 40
0.5
  1
7"
  7
ROMANS
  0
POINT
  5
BAF
  8
DEFPOINTS
 62
     0
 10
100.014383287393
 20
146.28325815451419
 30
0.0
  0
POINT
  5
BB0
  8
DEFPOINTS
 62
     0
 10
100.014383287393
 20
153.2832581545141
 30
0.0
  0
POINT
  5
BB1
  8
DEFPOINTS
 62
     0
 10
95.668438882462851
 20
153.2832581545141
 30
0.0
  0
ENDBLK
  5
72E
  8
0
  0
BLOCK
  8
0
  2
*D4
 70
     1
 10
0.0
 20
0.0
 30
0.0
  3
*D4
  1

  0
LINE
  5
BB2
  8
DIM
 62
     0
 10
99.764383287393017
 20
146.28325815451419
 30
0.0
 11
94.016313678657184
 21
146.28325815451419
 31
0.0
  0
LINE
  5
BB3
  8
DIM
 62
     0
 10
123.764383287393
 20
155.28325815451419
 30
0.0
 11
94.016313678657184
 21
155.28325815451419
 31
0.0
  0
LINE
  5
BB4
  8
DIM
 62
     0
 10
94.516313678657184
 20
147.00325815451421
 30
0.0
 11
94.516313678657184
 21
150.12563910689511
 31
0.0
  0
LINE
  5
BB5
  8
DIM
 62
     0
 10
94.516313678657184
 20
154.56325815451419
 30
0.0
 11
94.516313678657184
 21
151.44087720213321
 31
0.0
  0
SOLID
  5
BB6
  8
DIM
 62
     0
 10
94.396313678657179
 20
147.00325815451421
 30
0.0
 11
94.636313678657189
 21
147.00325815451421
 31
0.0
 12
94.516313678657184
 22
146.28325815451419
 32
0.0
 13
94.516313678657184
 23
146.28325815451419
 33
0.0
  0
SOLID
  5
BB7
  8
DIM
 62
     0
 10
94.396313678657179
 20
154.56325815451419
 30
0.0
 11
94.636313678657189
 21
154.56325815451419
 31
0.0
 12
94.516313678657184
 22
155.28325815451419
 32
0.0
 13
94.516313678657184
 23
155.28325815451419
 33
0.0
  0
TEXT
  5
BB8
  8
DIM
 62
     0
 10
94.099647011990484
 20
150.53325815451419
 30
0.0
 40
0.5
  1
9"
  7
ROMANS
  0
POINT
  5
BB9
  8
DEFPOINTS
 62
     0
 10
100.014383287393
 20
146.28325815451419
 30
0.0
  0
POINT
  5
BBA
  8
DEFPOINTS
 62
     0
 10
124.014383287393
 20
155.28325815451419
 30
0.0
  0
POINT
  5
BBB
  8
DEFPOINTS
 62
     0
 10
94.516313678657184
 20
155.28325815451419
 30
0.0
  0
ENDBLK
  5
746
  8
0
  0
BLOCK
  8
0
  2
*D5
 70
     1
 10
0.0
 20
0.0
 30
0.0
  3
*D5
  1

  0
LINE
  5
BBC
  8
DIM
 62
     0
 10
99.764383287393017
 20
146.28325815451419
 30
0.0
 11
92.728644264020986
 21
146.28325815451419
 31
0.0
  0
LINE
  5
BBD
  8
DIM
 62
     0
 10
99.764383287393002
 20
170.28325815451419
 30
0.0
 11
92.728644264020986
 21
170.28325815451419
 31
0.0
  0
LINE
  5
BBE
  8
DIM
 62
     0
 10
93.228644264020986
 20
147.00325815451421
 30
0.0
 11
93.228644264020986
 21
157.62563910689511
 31
0.0
  0
LINE
  5
BBF
  8
DIM
 62
     0
 10
93.228644264021
 20
169.56325815451419
 30
0.0
 11
93.228644264020986
 21
158.94087720213321
 31
0.0
  0
SOLID
  5
BC0
  8
DIM
 62
     0
 10
93.108644264020981
 20
147.00325815451421
 30
0.0
 11
93.34864426402099
 21
147.00325815451421
 31
0.0
 12
93.228644264020986
 22
146.28325815451419
 32
0.0
 13
93.228644264020986
 23
146.28325815451419
 33
0.0
  0
SOLID
  5
BC1
  8
DIM
 62
     0
 10
93.108644264020995
 20
169.56325815451419
 30
0.0
 11
93.348644264021004
 21
169.56325815451419
 31
0.0
 12
93.228644264021
 22
170.28325815451419
 32
0.0
 13
93.228644264021
 23
170.28325815451419
 33
0.0
  0
TEXT
  5
BC2
  8
DIM
 62
     0
 10
92.573882359259059
 20
158.03325815451419
 30
0.0
 40
0.5
  1
24"
  7
ROMANS
  0
POINT
  5
BC3
  8
DEFPOINTS
 62
     0
 10
100.014383287393
 20
146.28325815451419
 30
0.0
  0
POINT
  5
BC4
  8
DEFPOINTS
 62
     0
 10
100.014383287393
 20
170.28325815451419
 30
0.0
  0
POINT
  5
BC5
  8
DEFPOINTS
 62
     0
 10
93.228644264021
 20
170.28325815451419
 30
0.0
  0
ENDBLK
  5
790
  8
0
  0
BLOCK
  8
0
  2
*D6
 70
     1
 10
0.0
 20
0.0
 30
0.0
  3
*D6
  1

  0
LINE
  5
A61
  8
DIM
 62
     0
 10
148.264383287393
 20
146.28325815451419
 30
0.0
 11
150.70508097945029
 21
146.28325815451419
 31
0.0
  0
LINE
  5
A62
  8
DIM
 62
     0
 10
144.26438328739289
 20
151.78325815451419
 30
0.0
 11
150.70508097945029
 21
151.78325815451419
 31
0.0
  0
LINE
  5
A63
  8
DIM
 62
     0
 10
150.2050809794502
 20
147.00325815451421
 30
0.0
 11
150.2050809794502
 21
148.0899248211808
 31
0.0
  0
LINE
  5
A64
  8
DIM
 62
     0
 10
150.2050809794502
 20
151.06325815451419
 30
0.0
 11
150.2050809794502
 21
149.97659148784749
 31
0.0
  0
SOLID
  5
A65
  8
DIM
 62
     0
 10
150.0850809794502
 20
147.00325815451421
 30
0.0
 11
150.32508097945021
 21
147.00325815451421
 31
0.0
 12
150.2050809794502
 22
146.28325815451419
 32
0.0
 13
150.2050809794502
 23
146.28325815451419
 33
0.0
  0
SOLID
  5
A66
  8
DIM
 62
     0
 10
150.0850809794502
 20
151.06325815451419
 30
0.0
 11
150.32508097945021
 21
151.06325815451419
 31
0.0
 12
150.2050809794502
 22
151.78325815451419
 32
0.0
 13
150.2050809794502
 23
151.78325815451419
 33
0.0
  0
INSERT
  5
A67
  8
DIM
  2
*U47
 10
0.0
 20
0.0
 30
0.0
  0
POINT
  5
A68
  8
DEFPOINTS
 62
     0
 10
148.01438328739289
 20
146.28325815451419
 30
0.0
  0
POINT
  5
A69
  8
DEFPOINTS
 62
     0
 10
144.01438328739289
 20
151.78325815451419
 30
0.0
  0
POINT
  5
A6A
  8
DEFPOINTS
 62
     0
 10
150.2050809794502
 20
151.78325815451419
 30
0.0
  0
ENDBLK
  5
7F9
  8
0
  0
BLOCK
  8
0
  2
*D7
 70
     1
 10
0.0
 20
0.0
 30
0.0
  3
*D7
  1

  0
LINE
  5
A6B
  8
DIM
 62
     0
 10
124.014383287393
 20
147.00325815451421
 30
0.0
 11
124.014383287393
 21
148.5899248211808
 31
0.0
  0
LINE
  5
A6C
  8
DIM
 62
     0
 10
124.014383287393
 20
152.06325815451419
 30
0.0
 11
124.014383287393
 21
150.47659148784749
 31
0.0
  0
SOLID
  5
A6D
  8
DIM
 62
     0
 10
123.8943832873929
 20
147.00325815451421
 30
0.0
 11
124.13438328739301
 21
147.00325815451421
 31
0.0
 12
124.014383287393
 22
146.28325815451419
 32
0.0
 13
124.014383287393
 23
146.28325815451419
 33
0.0
  0
SOLID
  5
A6E
  8
DIM
 62
     0
 10
123.8943832873929
 20
152.06325815451419
 30
0.0
 11
124.13438328739301
 21
152.06325815451419
 31
0.0
 12
124.014383287393
 22
152.78325815451419
 32
0.0
 13
124.014383287393
 23
152.78325815451419
 33
0.0
  0
INSERT
  5
A6F
  8
DIM
  2
*U48
 10
0.0
 20
0.0
 30
0.0
  0
POINT
  5
A70
  8
DEFPOINTS
 62
     0
 10
124.014383287393
 20
146.28325815451419
 30
0.0
  0
POINT
  5
A71
  8
DEFPOINTS
 62
     0
 10
124.014383287393
 20
152.78325815451419
 30
0.0
  0
POINT
  5
A72
  8
DEFPOINTS
 62
     0
 10
124.014383287393
 20
152.78325815451419
 30
0.0
  0
ENDBLK
  5
82F
  8
0
  0
BLOCK
  8
0
  2
*D8
 70
     1
 10
0.0
 20
0.0
 30
0.0
  3
*D8
  1

  0
LINE
  5
BDA
  8
DIM
 62
     0
 10
122.014383287393
 20
153.03325815451419
 30
0.0
 11
122.014383287393
 21
157.46506585039239
 31
0.0
  0
LINE
  5
BDB
  8
DIM
 62
     0
 10
126.014383287393
 20
153.03325815451419
 30
0.0
 11
126.014383287393
 21
157.46506585039239
 31
0.0
  0
LINE
  5
BDC
  8
DIM
 62
     0
 10
121.294383287393
 20
156.96506585039239
 30
0.0
 11
120.574383287393
 21
156.96506585039239
 31
0.0
  0
LINE
  5
BDD
  8
DIM
 62
     0
 10
126.7343832873929
 20
156.96506585039239
 30
0.0
 11
127.454383287393
 21
156.96506585039239
 31
0.0
  0
SOLID
  5
BDE
  8
DIM
 62
     0
 10
121.294383287393
 20
157.0850658503924
 30
0.0
 11
121.294383287393
 21
156.84506585039239
 31
0.0
 12
122.014383287393
 22
156.96506585039239
 32
0.0
 13
122.014383287393
 23
156.96506585039239
 33
0.0
  0
SOLID
  5
BDF
  8
DIM
 62
     0
 10
126.7343832873929
 20
157.0850658503924
 30
0.0
 11
126.7343832873929
 21
156.84506585039239
 31
0.0
 12
126.014383287393
 22
156.96506585039239
 32
0.0
 13
126.014383287393
 23
156.96506585039239
 33
0.0
  0
TEXT
  5
BE0
  8
DIM
 62
     0
 10
124.2971845435854
 20
156.71506585039239
 30
0.0
 40
0.5
  1
4"
  7
ROMANS
  0
POINT
  5
BE1
  8
DEFPOINTS
 62
     0
 10
122.014383287393
 20
152.78325815451419
 30
0.0
  0
POINT
  5
BE2
  8
DEFPOINTS
 62
     0
 10
126.014383287393
 20
152.78325815451419
 30
0.0
  0
POINT
  5
BE3
  8
DEFPOINTS
 62
     0
 10
126.014383287393
 20
156.96506585039239
 30
0.0
  0
ENDBLK
  5
85B
  8
0
  0
BLOCK
  8
0
  2
*D9
 70
     1
 10
0.0
 20
0.0
 30
0.0
  3
*D9
  1

  0
LINE
  5
A7D
  8
DIM
 62
     0
 10
124.014383287393
 20
170.53325815451419
 30
0.0
 11
124.014383287393
 21
172.68502186769661
 31
0.0
  0
LINE
  5
A7E
  8
DIM
 62
     0
 10
148.01438328739289
 20
170.53325815451419
 30
0.0
 11
148.01438328739289
 21
172.68502186769661
 31
0.0
  0
LINE
  5
A7F
  8
DIM
 62
     0
 10
124.734383287393
 20
172.18502186769661
 30
0.0
 11
135.07104995405959
 21
172.18502186769661
 31
0.0
  0
LINE
  5
A80
  8
DIM
 62
     0
 10
147.294383287393
 20
172.18502186769661
 30
0.0
 11
136.9577166207263
 21
172.18502186769661
 31
0.0
  0
SOLID
  5
A81
  8
DIM
 62
     0
 10
124.734383287393
 20
172.30502186769661
 30
0.0
 11
124.734383287393
 21
172.0650218676966
 31
0.0
 12
124.014383287393
 22
172.18502186769661
 32
0.0
 13
124.014383287393
 23
172.18502186769661
 33
0.0
  0
SOLID
  5
A82
  8
DIM
 62
     0
 10
147.294383287393
 20
172.30502186769661
 30
0.0
 11
147.294383287393
 21
172.0650218676966
 31
0.0
 12
148.01438328739289
 22
172.18502186769661
 32
0.0
 13
148.01438328739289
 23
172.18502186769661
 33
0.0
  0
TEXT
  5
A83
  8
DIM
 62
     0
 10
135.35962138263099
 20
171.93502186769649
 30
0.0
 40
0.5
  1
24"
  7
ROMANS
  0
POINT
  5
A84
  8
DEFPOINTS
 62
     0
 10
124.014383287393
 20
170.28325815451419
 30
0.0
  0
POINT
  5
A85
  8
DEFPOINTS
 62
     0
 10
148.01438328739289
 20
170.28325815451419
 30
0.0
  0
POINT
  5
A86
  8
DEFPOINTS
 62
     0
 10
148.01438328739289
 20
172.18502186769661
 30
0.0
  0
ENDBLK
  5
869
  8
0
  0
BLOCK
  8
0
  2
*D10
 70
     1
 10
0.0
 20
0.0
 30
0.0
  3
*D10
  1

  0
LINE
  5
A87
  8
DIM
 62
     0
 10
144.26438328739289
 20
148.78325815451419
 30
0.0
 11
146.88425501349749
 21
148.78325815451419
 31
0.0
  0
LINE
  5
A88
  8
DIM
 62
     0
 10
144.26438328739289
 20
147.28325815451419
 30
0.0
 11
146.88425501349749
 21
147.28325815451419
 31
0.0
  0
LINE
  5
A89
  8
DIM
 62
     0
 10
146.38425501349749
 20
149.50325815451421
 30
0.0
 11
146.38425501349749
 21
150.22325815451421
 31
0.0
  0
LINE
  5
A8A
  8
DIM
 62
     0
 10
146.38425501349749
 20
146.56325815451419
 30
0.0
 11
146.38425501349749
 21
145.84325815451419
 31
0.0
  0
SOLID
  5
A8B
  8
DIM
 62
     0
 10
146.26425501349749
 20
149.50325815451421
 30
0.0
 11
146.5042550134975
 21
149.50325815451421
 31
0.0
 12
146.38425501349749
 22
148.78325815451419
 32
0.0
 13
146.38425501349749
 23
148.78325815451419
 33
0.0
  0
SOLID
  5
A8C
  8
DIM
 62
     0
 10
146.26425501349749
 20
146.56325815451419
 30
0.0
 11
146.5042550134975
 21
146.56325815451419
 31
0.0
 12
146.38425501349749
 22
147.28325815451419
 32
0.0
 13
146.38425501349749
 23
147.28325815451419
 33
0.0
  0
INSERT
  5
A8D
  8
DIM
  2
*U49
 10
0.0
 20
0.0
 30
0.0
  0
POINT
  5
A8E
  8
DEFPOINTS
 62
     0
 10
144.01438328739289
 20
148.78325815451419
 30
0.0
  0
POINT
  5
A8F
  8
DEFPOINTS
 62
     0
 10
144.01438328739289
 20
147.28325815451419
 30
0.0
  0
POINT
  5
A90
  8
DEFPOINTS
 62
     0
 10
146.38425501349749
 20
147.28325815451419
 30
0.0
  0
ENDBLK
  5
8D5
  8
0
  0
BLOCK
  8
0
  2
*D11
 70
     1
 10
0.0
 20
0.0
 30
0.0
  3
*D11
  1

  0
LINE
  5
A91
  8
DIM
 62
     0
 10
103.764383287393
 20
148.28325815451419
 30
0.0
 11
101.94042132039451
 21
148.28325815451419
 31
0.0
  0
LINE
  5
A92
  8
DIM
 62
     0
 10
103.764383287393
 20
147.28325815451419
 30
0.0
 11
101.94042132039451
 21
147.28325815451419
 31
0.0
  0
LINE
  5
A93
  8
DIM
 62
     0
 10
102.44042132039451
 20
149.00325815451421
 30
0.0
 11
102.44042132039451
 21
149.72325815451421
 31
0.0
  0
LINE
  5
A94
  8
DIM
 62
     0
 10
102.44042132039451
 20
146.56325815451419
 30
0.0
 11
102.44042132039451
 21
145.84325815451419
 31
0.0
  0
SOLID
  5
A95
  8
DIM
 62
     0
 10
102.3204213203945
 20
149.00325815451421
 30
0.0
 11
102.5604213203945
 21
149.00325815451421
 31
0.0
 12
102.44042132039451
 22
148.28325815451419
 32
0.0
 13
102.44042132039451
 23
148.28325815451419
 33
0.0
  0
SOLID
  5
A96
  8
DIM
 62
     0
 10
102.3204213203945
 20
146.56325815451419
 30
0.0
 11
102.5604213203945
 21
146.56325815451419
 31
0.0
 12
102.44042132039451
 22
147.28325815451419
 32
0.0
 13
102.44042132039451
 23
147.28325815451419
 33
0.0
  0
TEXT
  5
A97
  8
DIM
 62
     0
 10
102.69042132039451
 20
144.72135339260939
 30
0.0
 40
0.5
  1
1"
 50
90.0
  7
ROMANS
  0
POINT
  5
A98
  8
DEFPOINTS
 62
     0
 10
104.014383287393
 20
148.28325815451419
 30
0.0
  0
POINT
  5
A99
  8
DEFPOINTS
 62
     0
 10
104.014383287393
 20
147.28325815451419
 30
0.0
  0
POINT
  5
A9A
  8
DEFPOINTS
 62
     0
 10
102.44042132039451
 20
147.28325815451419
 30
0.0
  0
ENDBLK
  5
8E3
  8
0
  0
BLOCK
  8
0
  2
*D12
 70
     1
 10
0.0
 20
0.0
 30
0.0
  3
*D12
  1

  0
LINE
  5
A9B
  8
DIM
 62
     0
 10
123.98950735763771
 20
128.16146155296551
 30
0.0
 11
123.6480594364028
 21
124.7469823406162
 31
0.0
  0
LINE
  5
A9C
  8
DIM
 62
     0
 10
103.8409925061526
 20
130.17631303811399
 30
0.0
 11
103.4995445849177
 21
126.7618338257647
 31
0.0
  0
LINE
  5
A9D
  8
DIM
 62
     0
 10
122.9813845189621
 20
125.3161436134163
 30
0.0
 11
114.7811729177898
 21
126.13616477353359
 31
0.0
  0
LINE
  5
A9E
  8
DIM
 62
     0
 10
104.2657232213793
 20
127.18770974317459
 30
0.0
 11
112.4659348225517
 21
126.3676885830574
 31
0.0
  0
SOLID
  5
A9F
  8
DIM
 62
     0
 10
122.9933249652446
 20
125.4355480762416
 30
0.0
 11
122.96944407267959
 21
125.1967391505911
 31
0.0
 12
123.6978112959133
 22
125.24450093572121
 32
0.0
 13
123.6978112959133
 23
125.24450093572121
 33
0.0
  0
SOLID
  5
AA0
  8
DIM
 62
     0
 10
104.2776636676619
 20
127.3071142059998
 30
0.0
 11
104.25378277509679
 21
127.06830528034941
 31
0.0
 12
103.54929644442809
 22
127.2593524208697
 32
0.0
 13
103.54929644442809
 23
127.2593524208697
 33
0.0
  0
INSERT
  5
AA1
  8
DIM
  2
*U50
 10
0.0
 20
0.0
 30
0.0
  0
POINT
  5
AA2
  8
DEFPOINTS
 62
     0
 10
124.014383287393
 20
128.41022085051799
 30
0.0
  0
POINT
  5
AA3
  8
DEFPOINTS
 62
     0
 10
103.8658684359078
 20
130.4250723356665
 30
0.0
  0
POINT
  5
AA4
  8
DEFPOINTS
 62
     0
 10
103.54929644442809
 20
127.2593524208697
 30
0.0
  0
ENDBLK
  5
8FB
  8
0
  0
BLOCK
  8
0
  2
*D13
 70
     1
 10
0.0
 20
0.0
 30
0.0
  3
*D13
  1

  0
LINE
  5
AA5
  8
DIM
 62
     0
 10
103.6171091383554
 20
130.4499482654218
 30
0.0
 11
102.4008585818269
 21
130.5715733210746
 31
0.0
  0
LINE
  5
AA6
  8
DIM
 62
     0
 10
103.76562398984051
 20
131.93509678027331
 30
0.0
 11
102.549373433312
 21
132.05672183592611
 31
0.0
  0
LINE
  5
AA7
  8
DIM
 62
     0
 10
102.82673449923681
 20
129.80539468461291
 30
0.0
 11
102.7550918215416
 21
129.08896790766181
 31
0.0
  0
LINE
  5
AA8
  8
DIM
 62
     0
 10
103.1185347061121
 20
132.7233967533669
 30
0.0
 11
103.1901773838072
 21
133.43982353031799
 31
0.0
  0
SOLID
  5
AA9
  8
DIM
 62
     0
 10
102.70733003641161
 20
129.81733513089549
 30
0.0
 11
102.94613896206199
 21
129.79345423833041
 31
0.0
 12
102.8983771769319
 22
130.52182146156409
 32
0.0
 13
102.8983771769319
 23
130.52182146156409
 33
0.0
  0
SOLID
  5
AAA
  8
DIM
 62
     0
 10
102.9991302432869
 20
132.73533719964939
 30
0.0
 11
103.2379391689373
 21
132.71145630708429
 31
0.0
 12
103.04689202841701
 22
132.00696997641569
 32
0.0
 13
103.04689202841701
 23
132.00696997641569
 33
0.0
  0
INSERT
  5
AAB
  8
DIM
  2
*U51
 10
0.0
 20
0.0
 30
0.0
  0
POINT
  5
AAC
  8
DEFPOINTS
 62
     0
 10
103.8658684359078
 20
130.4250723356665
 30
0.0
  0
POINT
  5
AAD
  8
DEFPOINTS
 62
     0
 10
104.014383287393
 20
131.9102208505181
 30
0.0
  0
POINT
  5
AAE
  8
DEFPOINTS
 62
     0
 10
103.04689202841701
 20
132.00696997641569
 30
0.0
  0
ENDBLK
  5
923
  8
0
  0
BLOCK
  8
0
  2
*D14
 70
     1
 10
0.0
 20
0.0
 30
0.0
  3
*D14
  1

  0
LINE
  5
AAF
  8
DIM
 62
     0
 10
120.0093585967977
 20
128.55947642904951
 30
0.0
 11
119.84837388494481
 21
126.9496293105198
 31
0.0
  0
LINE
  5
AB0
  8
DIM
 62
     0
 10
123.98950735763771
 20
128.16146155296559
 30
0.0
 11
123.8285226457848
 21
126.55161443443581
 31
0.0
  0
LINE
  5
AB1
  8
DIM
 62
     0
 10
120.6145525214064
 20
127.37550522792969
 30
0.0
 11
121.1829620296372
 21
127.31866427710661
 31
0.0
  0
LINE
  5
AB2
  8
DIM
 62
     0
 10
123.1618477283441
 20
127.12077570723589
 30
0.0
 11
122.5934382201133
 21
127.17761665805899
 31
0.0
  0
SOLID
  5
AB3
  8
DIM
 62
     0
 10
120.626492967689
 20
127.49490969075489
 30
0.0
 11
120.6026120751239
 21
127.25610076510451
 31
0.0
 12
119.8981257444553
 22
127.4471479056248
 32
0.0
 13
119.8981257444553
 23
127.4471479056248
 33
0.0
  0
SOLID
  5
AB4
  8
DIM
 62
     0
 10
123.17378817462659
 20
127.24018017006109
 30
0.0
 11
123.14990728206151
 21
127.00137124441071
 31
0.0
 12
123.87827450529529
 22
127.0491330295408
 32
0.0
 13
123.87827450529529
 23
127.0491330295408
 33
0.0
  0
TEXT
  5
AB5
  8
DIM
 62
     0
 10
121.4715334582086
 20
126.9981404675828
 30
0.0
 40
0.5
  1
4"
  7
ROMANS
  0
POINT
  5
AB6
  8
DEFPOINTS
 62
     0
 10
120.03423452655301
 20
128.80823572660199
 30
0.0
  0
POINT
  5
AB7
  8
DEFPOINTS
 62
     0
 10
124.014383287393
 20
128.41022085051799
 30
0.0
  0
POINT
  5
AB8
  8
DEFPOINTS
 62
     0
 10
123.87827450529529
 20
127.0491330295408
 30
0.0
  0
ENDBLK
  5
974
  8
0
  0
BLOCK
  8
0
  2
*D15
 70
     1
 10
0.0
 20
0.0
 30
0.0
  3
*D15
  1

  0
LINE
  5
C2A
  8
DIM
 62
     0
 10
108.3200049096196
 20
114.9392443200319
 30
0.0
 11
105.5488023209728
 21
114.9392443200319
 31
0.0
  0
LINE
  5
C2B
  8
DIM
 62
     0
 10
112.8200049096196
 20
116.439244320032
 30
0.0
 11
105.5488023209728
 21
116.439244320032
 31
0.0
  0
LINE
  5
C2C
  8
DIM
 62
     0
 10
106.0488023209728
 20
114.219244320032
 30
0.0
 11
106.0488023209728
 21
113.49924432003201
 31
0.0
  0
LINE
  5
C2D
  8
DIM
 62
     0
 10
106.0488023209728
 20
117.1592443200319
 30
0.0
 11
106.0488023209728
 21
117.879244320032
 31
0.0
  0
SOLID
  5
C2E
  8
DIM
 62
     0
 10
105.92880232097281
 20
114.219244320032
 30
0.0
 11
106.1688023209728
 21
114.219244320032
 31
0.0
 12
106.0488023209728
 22
114.9392443200319
 32
0.0
 13
106.0488023209728
 23
114.9392443200319
 33
0.0
  0
SOLID
  5
C2F
  8
DIM
 62
     0
 10
105.92880232097281
 20
117.1592443200319
 30
0.0
 11
106.1688023209728
 21
117.1592443200319
 31
0.0
 12
106.0488023209728
 22
116.439244320032
 32
0.0
 13
106.0488023209728
 23
116.439244320032
 33
0.0
  0
INSERT
  5
C30
  8
DIM
  2
*U59
 10
0.0
 20
0.0
 30
0.0
  0
POINT
  5
C31
  8
DEFPOINTS
 62
     0
 10
108.5700049096196
 20
114.9392443200319
 30
0.0
  0
POINT
  5
C32
  8
DEFPOINTS
 62
     0
 10
113.0700049096196
 20
116.439244320032
 30
0.0
  0
POINT
  5
C33
  8
DEFPOINTS
 62
     0
 10
106.0488023209728
 20
116.439244320032
 30
0.0
  0
ENDBLK
  5
99C
  8
0
  0
BLOCK
  8
0
  2
*D16
 70
     1
 10
0.0
 20
0.0
 30
0.0
  3
*D16
  1

  0
LINE
  5
C20
  8
DIM
 62
     0
 10
108.3200049096196
 20
114.9392443200319
 30
0.0
 11
104.2812938267755
 21
114.9392443200319
 31
0.0
  0
LINE
  5
C21
  8
DIM
 62
     0
 10
113.8200049096196
 20
113.189244320032
 30
0.0
 11
104.2812938267755
 21
113.189244320032
 31
0.0
  0
LINE
  5
C22
  8
DIM
 62
     0
 10
104.7812938267755
 20
115.659244320032
 30
0.0
 11
104.7812938267755
 21
116.3792443200319
 31
0.0
  0
LINE
  5
C23
  8
DIM
 62
     0
 10
104.7812938267755
 20
112.469244320032
 30
0.0
 11
104.7812938267755
 21
111.74924432003201
 31
0.0
  0
SOLID
  5
C24
  8
DIM
 62
     0
 10
104.66129382677551
 20
115.659244320032
 30
0.0
 11
104.9012938267755
 21
115.659244320032
 31
0.0
 12
104.7812938267755
 22
114.9392443200319
 32
0.0
 13
104.7812938267755
 23
114.9392443200319
 33
0.0
  0
SOLID
  5
C25
  8
DIM
 62
     0
 10
104.66129382677551
 20
112.469244320032
 30
0.0
 11
104.9012938267755
 21
112.469244320032
 31
0.0
 12
104.7812938267755
 22
113.189244320032
 32
0.0
 13
104.7812938267755
 23
113.189244320032
 33
0.0
  0
INSERT
  5
C26
  8
DIM
  2
*U58
 10
0.0
 20
0.0
 30
0.0
  0
POINT
  5
C27
  8
DEFPOINTS
 62
     0
 10
108.5700049096196
 20
114.9392443200319
 30
0.0
  0
POINT
  5
C28
  8
DEFPOINTS
 62
     0
 10
114.0700049096196
 20
113.189244320032
 30
0.0
  0
POINT
  5
C29
  8
DEFPOINTS
 62
     0
 10
104.7812938267755
 20
113.189244320032
 30
0.0
  0
ENDBLK
  5
9AA
  8
0
  0
BLOCK
  8
0
  2
*D17
 70
     1
 10
0.0
 20
0.0
 30
0.0
  3
*D17
  1

  0
LINE
  5
C0C
  8
DIM
 62
     0
 10
113.8200049096196
 20
113.189244320032
 30
0.0
 11
103.15828114502951
 21
113.189244320032
 31
0.0
  0
LINE
  5
C0D
  8
DIM
 62
     0
 10
113.8200049096196
 20
120.939244320032
 30
0.0
 11
103.15828114502951
 21
120.939244320032
 31
0.0
  0
LINE
  5
C0E
  8
DIM
 62
     0
 10
103.65828114502951
 20
113.9092443200319
 30
0.0
 11
103.65828114502951
 21
116.1209109866986
 31
0.0
  0
LINE
  5
C0F
  8
DIM
 62
     0
 10
103.65828114502951
 20
120.219244320032
 30
0.0
 11
103.65828114502951
 21
118.0075776533653
 31
0.0
  0
SOLID
  5
C10
  8
DIM
 62
     0
 10
103.5382811450295
 20
113.9092443200319
 30
0.0
 11
103.7782811450295
 21
113.9092443200319
 31
0.0
 12
103.65828114502951
 22
113.189244320032
 32
0.0
 13
103.65828114502951
 23
113.189244320032
 33
0.0
  0
SOLID
  5
C11
  8
DIM
 62
     0
 10
103.5382811450295
 20
120.219244320032
 30
0.0
 11
103.7782811450295
 21
120.219244320032
 31
0.0
 12
103.65828114502951
 22
120.939244320032
 32
0.0
 13
103.65828114502951
 23
120.939244320032
 33
0.0
  0
INSERT
  5
C12
  8
DIM
  2
*U56
 10
0.0
 20
0.0
 30
0.0
  0
POINT
  5
C13
  8
DEFPOINTS
 62
     0
 10
114.0700049096196
 20
113.189244320032
 30
0.0
  0
POINT
  5
C14
  8
DEFPOINTS
 62
     0
 10
114.0700049096196
 20
120.939244320032
 30
0.0
  0
POINT
  5
C15
  8
DEFPOINTS
 62
     0
 10
103.65828114502951
 20
120.939244320032
 30
0.0
  0
ENDBLK
  5
9B8
  8
0
  0
BLOCK
  8
0
  2
*D19
 70
     1
 10
0.0
 20
0.0
 30
0.0
  3
*D19
  1

  0
LINE
  5
BE4
  8
DIM
 62
     0
 10
114.3200049096196
 20
120.939244320032
 30
0.0
 11
121.25073416307789
 21
120.939244320032
 31
0.0
  0
LINE
  5
BE5
  8
DIM
 62
     0
 10
116.8304761138081
 20
120.689244320032
 30
0.0
 11
121.25073416307789
 21
120.689244320032
 31
0.0
  0
LINE
  5
BE6
  8
DIM
 62
     0
 10
120.75073416307789
 20
119.9692443200319
 30
0.0
 11
120.75073416307789
 21
119.24924432003201
 31
0.0
  0
LINE
  5
BE7
  8
DIM
 62
     0
 10
120.75073416307789
 20
121.659244320032
 30
0.0
 11
120.75073416307789
 21
122.3792443200319
 31
0.0
  0
SOLID
  5
BE8
  8
DIM
 62
     0
 10
120.6307341630779
 20
119.9692443200319
 30
0.0
 11
120.8707341630779
 21
119.9692443200319
 31
0.0
 12
120.75073416307789
 22
120.689244320032
 32
0.0
 13
120.75073416307789
 23
120.689244320032
 33
0.0
  0
SOLID
  5
BE9
  8
DIM
 62
     0
 10
120.6307341630779
 20
121.659244320032
 30
0.0
 11
120.8707341630779
 21
121.659244320032
 31
0.0
 12
120.75073416307789
 22
120.939244320032
 32
0.0
 13
120.75073416307789
 23
120.939244320032
 33
0.0
  0
INSERT
  5
BEA
  8
DIM
  2
*U52
 10
0.0
 20
0.0
 30
0.0
  0
POINT
  5
BEB
  8
DEFPOINTS
 62
     0
 10
114.0700049096196
 20
120.939244320032
 30
0.0
  0
POINT
  5
BEC
  8
DEFPOINTS
 62
     0
 10
116.5804761138081
 20
120.689244320032
 30
0.0
  0
POINT
  5
BED
  8
DEFPOINTS
 62
     0
 10
120.75073416307789
 20
120.689244320032
 30
0.0
  0
ENDBLK
  5
9E6
  8
0
  0
BLOCK
  8
0
  2
*D20
 70
     1
 10
0.0
 20
0.0
 30
0.0
  3
*D20
  1

  0
LINE
  5
C34
  8
DIM
 62
     0
 10
116.8304761138081
 20
120.689244320032
 30
0.0
 11
121.25073416307789
 21
120.689244320032
 31
0.0
  0
LINE
  5
C35
  8
DIM
 62
     0
 10
117.8200049096196
 20
113.6840629728817
 30
0.0
 11
121.25073416307789
 21
113.6840629728817
 31
0.0
  0
LINE
  5
C36
  8
DIM
 62
     0
 10
120.75073416307789
 20
119.9692443200319
 30
0.0
 11
120.75073416307789
 21
117.8442726940759
 31
0.0
  0
LINE
  5
C37
  8
DIM
 62
     0
 10
120.75073416307789
 20
114.4040629728817
 30
0.0
 11
120.75073416307789
 21
116.5290345988378
 31
0.0
  0
SOLID
  5
C38
  8
DIM
 62
     0
 10
120.6307341630779
 20
119.9692443200319
 30
0.0
 11
120.8707341630779
 21
119.9692443200319
 31
0.0
 12
120.75073416307789
 22
120.689244320032
 32
0.0
 13
120.75073416307789
 23
120.689244320032
 33
0.0
  0
SOLID
  5
C39
  8
DIM
 62
     0
 10
120.6307341630779
 20
114.4040629728817
 30
0.0
 11
120.8707341630779
 21
114.4040629728817
 31
0.0
 12
120.75073416307789
 22
113.6840629728817
 32
0.0
 13
120.75073416307789
 23
113.6840629728817
 33
0.0
  0
TEXT
  5
C3A
  8
DIM
 62
     0
 10
120.33406749641119
 20
116.9366536464568
 30
0.0
 40
0.5
  1
7"
  7
ROMANS
  0
POINT
  5
C3B
  8
DEFPOINTS
 62
     0
 10
116.5804761138081
 20
120.689244320032
 30
0.0
  0
POINT
  5
C3C
  8
DEFPOINTS
 62
     0
 10
117.5700049096196
 20
113.6840629728817
 30
0.0
  0
POINT
  5
C3D
  8
DEFPOINTS
 62
     0
 10
120.75073416307789
 20
113.6840629728817
 30
0.0
  0
ENDBLK
  5
9F4
  8
0
  0
BLOCK
  8
0
  2
*D21
 70
     1
 10
0.0
 20
0.0
 30
0.0
  3
*D21
  1

  0
LINE
  5
BEE
  8
DIM
 62
     0
 10
114.0700049096196
 20
111.9293000702387
 30
0.0
 11
114.0700049096196
 21
110.0194380135238
 31
0.0
  0
LINE
  5
BEF
  8
DIM
 62
     0
 10
117.5700049096196
 20
113.4340629728817
 30
0.0
 11
117.5700049096196
 21
110.0194380135238
 31
0.0
  0
LINE
  5
BF0
  8
DIM
 62
     0
 10
114.7900049096196
 20
110.5194380135238
 30
0.0
 11
114.91238586200051
 21
110.5194380135238
 31
0.0
  0
LINE
  5
BF1
  8
DIM
 62
     0
 10
116.8500049096196
 20
110.5194380135238
 30
0.0
 11
116.72762395723861
 21
110.5194380135238
 31
0.0
  0
SOLID
  5
BF2
  8
DIM
 62
     0
 10
114.7900049096196
 20
110.6394380135238
 30
0.0
 11
114.7900049096196
 21
110.39943801352381
 31
0.0
 12
114.0700049096196
 22
110.5194380135238
 32
0.0
 13
114.0700049096196
 23
110.5194380135238
 33
0.0
  0
SOLID
  5
BF3
  8
DIM
 62
     0
 10
116.8500049096196
 20
110.6394380135238
 30
0.0
 11
116.8500049096196
 21
110.39943801352381
 31
0.0
 12
117.5700049096196
 22
110.5194380135238
 32
0.0
 13
117.5700049096196
 23
110.5194380135238
 33
0.0
  0
INSERT
  5
BF4
  8
DIM
  2
*U53
 10
0.0
 20
0.0
 30
0.0
  0
POINT
  5
BF5
  8
DEFPOINTS
 62
     0
 10
114.0700049096196
 20
112.1793000702387
 30
0.0
  0
POINT
  5
BF6
  8
DEFPOINTS
 62
     0
 10
117.5700049096196
 20
113.6840629728817
 30
0.0
  0
POINT
  5
BF7
  8
DEFPOINTS
 62
     0
 10
117.5700049096196
 20
110.5194380135238
 30
0.0
  0
ENDBLK
  5
A02
  8
0
  0
BLOCK
  8
0
  2
*D22
 70
     1
 10
0.0
 20
0.0
 30
0.0
  3
*D22
  1

  0
LINE
  5
BF8
  8
DIM
 62
     0
 10
114.0700049096196
 20
121.1892443200319
 30
0.0
 11
114.0700049096196
 21
122.89791860656941
 31
0.0
  0
LINE
  5
BF9
  8
DIM
 62
     0
 10
116.5804761138081
 20
120.939244320032
 30
0.0
 11
116.5804761138081
 21
122.89791860656941
 31
0.0
  0
LINE
  5
BFA
  8
DIM
 62
     0
 10
113.3500049096196
 20
122.39791860656931
 30
0.0
 11
112.6300049096196
 21
122.39791860656931
 31
0.0
  0
LINE
  5
BFB
  8
DIM
 62
     0
 10
117.300476113808
 20
122.39791860656931
 30
0.0
 11
118.0204761138081
 21
122.39791860656931
 31
0.0
  0
SOLID
  5
BFC
  8
DIM
 62
     0
 10
113.3500049096196
 20
122.5179186065693
 30
0.0
 11
113.3500049096196
 21
122.2779186065693
 31
0.0
 12
114.0700049096196
 22
122.39791860656931
 32
0.0
 13
114.0700049096196
 23
122.39791860656931
 33
0.0
  0
SOLID
  5
BFD
  8
DIM
 62
     0
 10
117.300476113808
 20
122.5179186065693
 30
0.0
 11
117.300476113808
 21
122.2779186065693
 31
0.0
 12
116.5804761138081
 22
122.39791860656931
 32
0.0
 13
116.5804761138081
 23
122.39791860656931
 33
0.0
  0
INSERT
  5
BFE
  8
DIM
  2
*U54
 10
0.0
 20
0.0
 30
0.0
  0
POINT
  5
BFF
  8
DEFPOINTS
 62
     0
 10
114.0700049096196
 20
120.939244320032
 30
0.0
  0
POINT
  5
C00
  8
DEFPOINTS
 62
     0
 10
116.5804761138081
 20
120.689244320032
 30
0.0
  0
POINT
  5
C01
  8
DEFPOINTS
 62
     0
 10
116.5804761138081
 20
122.39791860656931
 30
0.0
  0
ENDBLK
  5
A10
  8
0
  0
BLOCK
  8
0
  2
*D23
 70
     1
 10
0.0
 20
0.0
 30
0.0
  3
*D23
  1

  0
LINE
  5
C16
  8
DIM
 62
     0
 10
114.0700049096196
 20
111.6793000702387
 30
0.0
 11
114.0700049096196
 21
110.0194380135238
 31
0.0
  0
LINE
  5
C17
  8
DIM
 62
     0
 10
108.5700049096196
 20
114.689244320032
 30
0.0
 11
108.5700049096196
 21
110.0194380135238
 31
0.0
  0
LINE
  5
C18
  8
DIM
 62
     0
 10
113.3500049096196
 20
110.5194380135238
 30
0.0
 11
112.22762395723861
 21
110.5194380135238
 31
0.0
  0
LINE
  5
C19
  8
DIM
 62
     0
 10
109.2900049096196
 20
110.5194380135238
 30
0.0
 11
110.41238586200051
 21
110.5194380135238
 31
0.0
  0
SOLID
  5
C1A
  8
DIM
 62
     0
 10
113.3500049096196
 20
110.6394380135238
 30
0.0
 11
113.3500049096196
 21
110.39943801352381
 31
0.0
 12
114.0700049096196
 22
110.5194380135238
 32
0.0
 13
114.0700049096196
 23
110.5194380135238
 33
0.0
  0
SOLID
  5
C1B
  8
DIM
 62
     0
 10
109.2900049096196
 20
110.6394380135238
 30
0.0
 11
109.2900049096196
 21
110.39943801352381
 31
0.0
 12
108.5700049096196
 22
110.5194380135238
 32
0.0
 13
108.5700049096196
 23
110.5194380135238
 33
0.0
  0
INSERT
  5
C1C
  8
DIM
  2
*U57
 10
0.0
 20
0.0
 30
0.0
  0
POINT
  5
C1D
  8
DEFPOINTS
 62
     0
 10
114.0700049096196
 20
111.9293000702387
 30
0.0
  0
POINT
  5
C1E
  8
DEFPOINTS
 62
     0
 10
108.5700049096196
 20
114.9392443200319
 30
0.0
  0
POINT
  5
C1F
  8
DEFPOINTS
 62
     0
 10
108.5700049096196
 20
110.5194380135238
 30
0.0
  0
ENDBLK
  5
B71
  8
0
  0
BLOCK
  8
0
  2
*D24
 70
     1
 10
0.0
 20
0.0
 30
0.0
  3
*D24
  1

  0
LINE
  5
C02
  8
DIM
 62
     0
 10
108.5700049096196
 20
115.189244320032
 30
0.0
 11
108.5700049096196
 21
117.8952844241073
 31
0.0
  0
LINE
  5
C03
  8
DIM
 62
     0
 10
113.0700049096196
 20
116.689244320032
 30
0.0
 11
113.0700049096196
 21
117.8952844241073
 31
0.0
  0
LINE
  5
C04
  8
DIM
 62
     0
 10
109.2900049096196
 20
117.3952844241073
 30
0.0
 11
109.91238586200051
 21
117.3952844241073
 31
0.0
  0
LINE
  5
C05
  8
DIM
 62
     0
 10
112.3500049096196
 20
117.3952844241073
 30
0.0
 11
111.72762395723861
 21
117.3952844241073
 31
0.0
  0
SOLID
  5
C06
  8
DIM
 62
     0
 10
109.2900049096196
 20
117.51528442410731
 30
0.0
 11
109.2900049096196
 21
117.2752844241073
 31
0.0
 12
108.5700049096196
 22
117.3952844241073
 32
0.0
 13
108.5700049096196
 23
117.3952844241073
 33
0.0
  0
SOLID
  5
C07
  8
DIM
 62
     0
 10
112.3500049096196
 20
117.51528442410731
 30
0.0
 11
112.3500049096196
 21
117.2752844241073
 31
0.0
 12
113.0700049096196
 22
117.3952844241073
 32
0.0
 13
113.0700049096196
 23
117.3952844241073
 33
0.0
  0
INSERT
  5
C08
  8
DIM
  2
*U55
 10
0.0
 20
0.0
 30
0.0
  0
POINT
  5
C09
  8
DEFPOINTS
 62
     0
 10
108.5700049096196
 20
114.9392443200319
 30
0.0
  0
POINT
  5
C0A
  8
DEFPOINTS
 62
     0
 10
113.0700049096196
 20
116.439244320032
 30
0.0
  0
POINT
  5
C0B
  8
DEFPOINTS
 62
     0
 10
113.0700049096196
 20
117.3952844241073
 30
0.0
  0
ENDBLK
  5
B9D
  8
0
  0
BLOCK
  8
0
  2
*D25
 70
     1
 10
0.0
 20
0.0
 30
0.0
  3
*D25
  1

  0
LINE
  5
C6C
  8
DIM
 62
     0
 10
135.70847440194819
 20
119.5149343590443
 30
0.0
 11
135.70847440194819
 21
120.89998167754089
 31
0.0
  0
LINE
  5
C6D
  8
DIM
 62
     0
 10
136.70847440194819
 20
119.5149343590443
 30
0.0
 11
136.70847440194819
 21
120.89998167754089
 31
0.0
  0
LINE
  5
C6E
  8
DIM
 62
     0
 10
134.9884744019482
 20
120.39998167754079
 30
0.0
 11
134.2684744019482
 21
120.39998167754079
 31
0.0
  0
LINE
  5
C6F
  8
DIM
 62
     0
 10
137.42847440194819
 20
120.39998167754079
 30
0.0
 11
138.14847440194819
 21
120.39998167754079
 31
0.0
  0
SOLID
  5
C70
  8
DIM
 62
     0
 10
134.9884744019482
 20
120.5199816775408
 30
0.0
 11
134.9884744019482
 21
120.2799816775408
 31
0.0
 12
135.70847440194819
 22
120.39998167754079
 32
0.0
 13
135.70847440194819
 23
120.39998167754079
 33
0.0
  0
SOLID
  5
C71
  8
DIM
 62
     0
 10
137.42847440194819
 20
120.5199816775408
 30
0.0
 11
137.42847440194819
 21
120.2799816775408
 31
0.0
 12
136.70847440194819
 22
120.39998167754079
 32
0.0
 13
136.70847440194819
 23
120.39998167754079
 33
0.0
  0
TEXT
  5
C72
  8
DIM
 62
     0
 10
135.75609344956729
 20
120.14998167754079
 30
0.0
 40
0.5
  1
1"
  7
ROMANS
  0
POINT
  5
C73
  8
DEFPOINTS
 62
     0
 10
135.70847440194819
 20
119.2649343590443
 30
0.0
  0
POINT
  5
C74
  8
DEFPOINTS
 62
     0
 10
136.70847440194819
 20
119.2649343590443
 30
0.0
  0
POINT
  5
C75
  8
DEFPOINTS
 62
     0
 10
136.70847440194819
 20
120.39998167754079
 30
0.0
  0
ENDBLK
  5
C6B
  8
0
  0
BLOCK
  8
0
  2
*D26
 70
     1
 10
0.0
 20
0.0
 30
0.0
  3
*D26
  1

  0
LINE
  5
C7A
  8
DIM
 62
     0
 10
129.20847440194819
 20
118.5149343590443
 30
0.0
 11
129.20847440194819
 21
122.1300601870816
 31
0.0
  0
LINE
  5
C7B
  8
DIM
 62
     0
 10
143.20847440194819
 20
118.5149343590443
 30
0.0
 11
143.20847440194819
 21
122.1300601870816
 31
0.0
  0
LINE
  5
C7C
  8
DIM
 62
     0
 10
129.92847440194819
 20
121.6300601870816
 30
0.0
 11
135.3008553543292
 21
121.6300601870816
 31
0.0
  0
LINE
  5
C7D
  8
DIM
 62
     0
 10
142.4884744019482
 20
121.6300601870816
 30
0.0
 11
137.1160934495673
 21
121.6300601870816
 31
0.0
  0
SOLID
  5
C7E
  8
DIM
 62
     0
 10
129.92847440194819
 20
121.7500601870816
 30
0.0
 11
129.92847440194819
 21
121.51006018708161
 31
0.0
 12
129.20847440194819
 22
121.6300601870816
 32
0.0
 13
129.20847440194819
 23
121.6300601870816
 33
0.0
  0
SOLID
  5
C7F
  8
DIM
 62
     0
 10
142.4884744019482
 20
121.7500601870816
 30
0.0
 11
142.4884744019482
 21
121.51006018708161
 31
0.0
 12
143.20847440194819
 22
121.6300601870816
 32
0.0
 13
143.20847440194819
 23
121.6300601870816
 33
0.0
  0
TEXT
  5
C80
  8
DIM
 62
     0
 10
135.5179982114721
 20
121.3800601870816
 30
0.0
 40
0.5
  1
14"
  7
ROMANS
  0
POINT
  5
C81
  8
DEFPOINTS
 62
     0
 10
129.20847440194819
 20
118.2649343590443
 30
0.0
  0
POINT
  5
C82
  8
DEFPOINTS
 62
     0
 10
143.20847440194819
 20
118.2649343590443
 30
0.0
  0
POINT
  5
C83
  8
DEFPOINTS
 62
     0
 10
143.20847440194819
 20
121.6300601870816
 30
0.0
  0
ENDBLK
  5
C85
  8
0
  0
BLOCK
  8
0
  2
*D27
 70
     1
 10
0.0
 20
0.0
 30
0.0
  3
*D27
  1

  0
LINE
  5
C88
  8
DIM
 62
     0
 10
129.70847440194819
 20
115.0149343590443
 30
0.0
 11
129.70847440194819
 21
111.96529919731741
 31
0.0
  0
LINE
  5
C89
  8
DIM
 62
     0
 10
142.70847440194819
 20
115.0149343590443
 30
0.0
 11
142.70847440194819
 21
111.96529919731741
 31
0.0
  0
LINE
  5
C8A
  8
DIM
 62
     0
 10
130.42847440194819
 20
112.46529919731741
 30
0.0
 11
135.3008553543292
 21
112.46529919731741
 31
0.0
  0
LINE
  5
C8B
  8
DIM
 62
     0
 10
141.9884744019482
 20
112.46529919731741
 30
0.0
 11
137.1160934495673
 21
112.46529919731741
 31
0.0
  0
SOLID
  5
C8C
  8
DIM
 62
     0
 10
130.42847440194819
 20
112.5852991973174
 30
0.0
 11
130.42847440194819
 21
112.3452991973174
 31
0.0
 12
129.70847440194819
 22
112.46529919731741
 32
0.0
 13
129.70847440194819
 23
112.46529919731741
 33
0.0
  0
SOLID
  5
C8D
  8
DIM
 62
     0
 10
141.9884744019482
 20
112.5852991973174
 30
0.0
 11
141.9884744019482
 21
112.3452991973174
 31
0.0
 12
142.70847440194819
 22
112.46529919731741
 32
0.0
 13
142.70847440194819
 23
112.46529919731741
 33
0.0
  0
TEXT
  5
C8E
  8
DIM
 62
     0
 10
135.5179982114721
 20
112.21529919731741
 30
0.0
 40
0.5
  1
13"
  7
ROMANS
  0
POINT
  5
C8F
  8
DEFPOINTS
 62
     0
 10
129.70847440194819
 20
115.2649343590443
 30
0.0
  0
POINT
  5
C90
  8
DEFPOINTS
 62
     0
 10
142.70847440194819
 20
115.2649343590443
 30
0.0
  0
POINT
  5
C91
  8
DEFPOINTS
 62
     0
 10
142.70847440194819
 20
112.46529919731741
 30
0.0
  0
ENDBLK
  5
C93
  8
0
  0
BLOCK
  8
0
  2
*D28
 70
     1
 10
0.0
 20
0.0
 30
0.0
  3
*D28
  1

  0
LINE
  5
C96
  8
DIM
 62
     0
 10
135.83347440194819
 20
114.0149343590443
 30
0.0
 11
135.83347440194819
 21
113.060204260326
 31
0.0
  0
LINE
  5
C97
  8
DIM
 62
     0
 10
136.58347440194819
 20
114.0149343590443
 30
0.0
 11
136.58347440194819
 21
113.060204260326
 31
0.0
  0
LINE
  5
C98
  8
DIM
 62
     0
 10
135.1134744019482
 20
113.560204260326
 30
0.0
 11
134.3934744019482
 21
113.560204260326
 31
0.0
  0
LINE
  5
C99
  8
DIM
 62
     0
 10
137.30347440194819
 20
113.560204260326
 30
0.0
 11
138.02347440194819
 21
113.560204260326
 31
0.0
  0
SOLID
  5
C9A
  8
DIM
 62
     0
 10
135.1134744019482
 20
113.68020426032609
 30
0.0
 11
135.1134744019482
 21
113.440204260326
 31
0.0
 12
135.83347440194819
 22
113.560204260326
 32
0.0
 13
135.83347440194819
 23
113.560204260326
 33
0.0
  0
SOLID
  5
C9B
  8
DIM
 62
     0
 10
137.30347440194819
 20
113.68020426032609
 30
0.0
 11
137.30347440194819
 21
113.440204260326
 31
0.0
 12
136.58347440194819
 22
113.560204260326
 32
0.0
 13
136.58347440194819
 23
113.560204260326
 33
0.0
  0
INSERT
  5
C9C
  8
DIM
  2
*U60
 10
0.0
 20
0.0
 30
0.0
  0
POINT
  5
C9D
  8
DEFPOINTS
 62
     0
 10
135.83347440194819
 20
114.2649343590443
 30
0.0
  0
POINT
  5
C9E
  8
DEFPOINTS
 62
     0
 10
136.58347440194819
 20
114.2649343590443
 30
0.0
  0
POINT
  5
C9F
  8
DEFPOINTS
 62
     0
 10
136.58347440194819
 20
113.560204260326
 30
0.0
  0
ENDBLK
  5
CA1
  8
0
  0
BLOCK
  8
0
  2
*D29
 70
     1
 10
0.0
 20
0.0
 30
0.0
  3
*D29
  1

  0
LINE
  5
CA4
  8
DIM
 62
     0
 10
142.95847440194819
 20
115.2649343590443
 30
0.0
 11
144.71611660311939
 21
115.2649343590443
 31
0.0
  0
LINE
  5
CA5
  8
DIM
 62
     0
 10
143.12514106861491
 20
116.2649343590443
 30
0.0
 11
144.71611660311939
 21
116.2649343590443
 31
0.0
  0
LINE
  5
CA6
  8
DIM
 62
     0
 10
144.21611660311939
 20
114.5449343590443
 30
0.0
 11
144.21611660311939
 21
113.82493435904431
 31
0.0
  0
LINE
  5
CA7
  8
DIM
 62
     0
 10
144.21611660311939
 20
116.9849343590443
 30
0.0
 11
144.21611660311939
 21
117.7049343590443
 31
0.0
  0
SOLID
  5
CA8
  8
DIM
 62
     0
 10
144.09611660311941
 20
114.5449343590443
 30
0.0
 11
144.33611660311939
 21
114.5449343590443
 31
0.0
 12
144.21611660311939
 22
115.2649343590443
 32
0.0
 13
144.21611660311939
 23
115.2649343590443
 33
0.0
  0
SOLID
  5
CA9
  8
DIM
 62
     0
 10
144.09611660311941
 20
116.9849343590443
 30
0.0
 11
144.33611660311939
 21
116.9849343590443
 31
0.0
 12
144.21611660311939
 22
116.2649343590443
 32
0.0
 13
144.21611660311939
 23
116.2649343590443
 33
0.0
  0
TEXT
  5
CAA
  8
DIM
 62
     0
 10
144.4661166031193
 20
117.9220772161872
 30
0.0
 40
0.5
  1
1"
 50
90.0
  7
ROMANS
  0
POINT
  5
CAB
  8
DEFPOINTS
 62
     0
 10
142.70847440194819
 20
115.2649343590443
 30
0.0
  0
POINT
  5
CAC
  8
DEFPOINTS
 62
     0
 10
142.87514106861491
 20
116.2649343590443
 30
0.0
  0
POINT
  5
CAD
  8
DEFPOINTS
 62
     0
 10
144.21611660311939
 20
116.2649343590443
 30
0.0
  0
ENDBLK
  5
CAF
  8
0
  0
BLOCK
  8
0
  2
*D30
 70
     1
 10
0.0
 20
0.0
 30
0.0
  3
*D30
  1

  0
LINE
  5
CB2
  8
DIM
 62
     0
 10
129.29180773528159
 20
116.2649343590443
 30
0.0
 11
127.69144915796851
 21
116.2649343590443
 31
0.0
  0
LINE
  5
CB3
  8
DIM
 62
     0
 10
128.95847440194819
 20
118.2649343590443
 30
0.0
 11
127.69144915796851
 21
118.2649343590443
 31
0.0
  0
LINE
  5
CB4
  8
DIM
 62
     0
 10
128.19144915796849
 20
115.5449343590443
 30
0.0
 11
128.19144915796849
 21
114.82493435904431
 31
0.0
  0
LINE
  5
CB5
  8
DIM
 62
     0
 10
128.19144915796849
 20
118.9849343590443
 30
0.0
 11
128.19144915796849
 21
119.7049343590443
 31
0.0
  0
SOLID
  5
CB6
  8
DIM
 62
     0
 10
128.07144915796849
 20
115.5449343590443
 30
0.0
 11
128.3114491579685
 21
115.5449343590443
 31
0.0
 12
128.19144915796849
 22
116.2649343590443
 32
0.0
 13
128.19144915796849
 23
116.2649343590443
 33
0.0
  0
SOLID
  5
CB7
  8
DIM
 62
     0
 10
128.07144915796849
 20
118.9849343590443
 30
0.0
 11
128.3114491579685
 21
118.9849343590443
 31
0.0
 12
128.19144915796849
 22
118.2649343590443
 32
0.0
 13
128.19144915796849
 23
118.2649343590443
 33
0.0
  0
TEXT
  5
CB8
  8
DIM
 62
     0
 10
127.77478249130181
 20
117.0149343590443
 30
0.0
 40
0.5
  1
2"
  7
ROMANS
  0
POINT
  5
CB9
  8
DEFPOINTS
 62
     0
 10
129.54180773528159
 20
116.2649343590443
 30
0.0
  0
POINT
  5
CBA
  8
DEFPOINTS
 62
     0
 10
129.20847440194819
 20
118.2649343590443
 30
0.0
  0
POINT
  5
CBB
  8
DEFPOINTS
 62
     0
 10
128.19144915796849
 20
118.2649343590443
 30
0.0
  0
ENDBLK
  5
CBD
  8
0
  0
BLOCK
  8
0
  2
*D31
 70
     1
 10
0.0
 20
0.0
 30
0.0
  3
*D31
  1

  0
LINE
  5
CDF
  8
DIM
 62
     0
 10
136.20847440194831
 20
116.9849343590443
 30
0.0
 11
136.20847440194831
 21
117.1073153114253
 31
0.0
  0
LINE
  5
CE0
  8
DIM
 62
     0
 10
136.20847440194831
 20
118.5449343590443
 30
0.0
 11
136.20847440194831
 21
118.4225534066633
 31
0.0
  0
SOLID
  5
CE1
  8
DIM
 62
     0
 10
136.0884744019483
 20
116.9849343590443
 30
0.0
 11
136.32847440194831
 21
116.9849343590443
 31
0.0
 12
136.20847440194831
 22
116.2649343590443
 32
0.0
 13
136.20847440194831
 23
116.2649343590443
 33
0.0
  0
SOLID
  5
CE2
  8
DIM
 62
     0
 10
136.0884744019483
 20
118.5449343590443
 30
0.0
 11
136.32847440194831
 21
118.5449343590443
 31
0.0
 12
136.20847440194831
 22
119.2649343590443
 32
0.0
 13
136.20847440194831
 23
119.2649343590443
 33
0.0
  0
TEXT
  5
CE3
  8
DIM
 62
     0
 10
135.79180773528151
 20
117.5149343590443
 30
0.0
 40
0.5
  1
3"
  7
ROMANS
  0
POINT
  5
CE4
  8
DEFPOINTS
 62
     0
 10
136.20847440194819
 20
116.2649343590443
 30
0.0
  0
POINT
  5
CE5
  8
DEFPOINTS
 62
     0
 10
136.20847440194819
 20
119.2649343590443
 30
0.0
  0
POINT
  5
CE6
  8
DEFPOINTS
 62
     0
 10
136.20847440194831
 20
119.2649343590443
 30
0.0
  0
ENDBLK
  5
CCB
  8
0
  0
BLOCK
  8
0
  2
*D32
 70
     1
 10
0.0
 20
0.0
 30
0.0
  3
*D32
  1

  0
LINE
  5
E13
  8
DIM
 62
     0
 10
108.9409565792247
 20
106.3423980603657
 30
0.0
 11
108.9409565792247
 21
108.82328730938509
 31
0.0
  0
LINE
  5
E14
  8
DIM
 62
     0
 10
139.31271183255799
 20
103.14325005378321
 30
0.0
 11
139.31271183255799
 21
108.82328730938509
 31
0.0
  0
LINE
  5
E15
  8
DIM
 62
     0
 10
109.6609565792247
 20
108.32328730938509
 30
0.0
 11
122.98111992017699
 21
108.32328730938509
 31
0.0
  0
LINE
  5
E16
  8
DIM
 62
     0
 10
138.59271183255791
 20
108.32328730938509
 30
0.0
 11
125.2725484916056
 21
108.32328730938509
 31
0.0
  0
SOLID
  5
E17
  8
DIM
 62
     0
 10
109.6609565792247
 20
108.4432873093851
 30
0.0
 11
109.6609565792247
 21
108.2032873093851
 31
0.0
 12
108.9409565792247
 22
108.32328730938509
 32
0.0
 13
108.9409565792247
 23
108.32328730938509
 33
0.0
  0
SOLID
  5
E18
  8
DIM
 62
     0
 10
138.59271183255791
 20
108.4432873093851
 30
0.0
 11
138.59271183255791
 21
108.2032873093851
 31
0.0
 12
139.31271183255799
 22
108.32328730938509
 32
0.0
 13
139.31271183255799
 23
108.32328730938509
 33
0.0
  0
INSERT
  5
E19
  8
DIM
  2
*U61
 10
0.0
 20
0.0
 30
0.0
  0
POINT
  5
E1A
  8
DEFPOINTS
 62
     0
 10
108.9409565792247
 20
106.0923980603657
 30
0.0
  0
POINT
  5
E1B
  8
DEFPOINTS
 62
     0
 10
139.31271183255799
 20
102.89325005378321
 30
0.0
  0
POINT
  5
E1C
  8
DEFPOINTS
 62
     0
 10
139.31271183255799
 20
108.32328730938509
 30
0.0
  0
ENDBLK
  5
DFE
  8
0
  0
BLOCK
  8
0
  2
*D33
 70
     1
 10
0.0
 20
0.0
 30
0.0
  3
*D33
  1

  0
LINE
  5
E1F
  8
DIM
 62
     0
 10
109.2571353155252
 20
96.458191590337265
 30
0.0
 11
109.2571353155252
 21
90.104506871985905
 31
0.0
  0
LINE
  5
E20
  8
DIM
 62
     0
 10
139.2571353155252
 20
97.833191590337265
 30
0.0
 11
139.2571353155252
 21
90.104506871985905
 31
0.0
  0
LINE
  5
E21
  8
DIM
 62
     0
 10
109.9771353155252
 20
90.604506871985905
 30
0.0
 11
123.3138019821919
 21
90.604506871985905
 31
0.0
  0
LINE
  5
E22
  8
DIM
 62
     0
 10
138.53713531552521
 20
90.604506871985905
 30
0.0
 11
125.2004686488585
 21
90.604506871985905
 31
0.0
  0
SOLID
  5
E23
  8
DIM
 62
     0
 10
109.9771353155252
 20
90.724506871985909
 30
0.0
 11
109.9771353155252
 21
90.4845068719859
 31
0.0
 12
109.2571353155252
 22
90.604506871985905
 32
0.0
 13
109.2571353155252
 23
90.604506871985905
 33
0.0
  0
SOLID
  5
E24
  8
DIM
 62
     0
 10
138.53713531552521
 20
90.724506871985909
 30
0.0
 11
138.53713531552521
 21
90.4845068719859
 31
0.0
 12
139.2571353155252
 22
90.604506871985905
 32
0.0
 13
139.2571353155252
 23
90.604506871985905
 33
0.0
  0
TEXT
  5
E25
  8
DIM
 62
     0
 10
123.60237341076331
 20
90.354506871985905
 30
0.0
 40
0.5
  1
30"
  7
ROMANS
  0
POINT
  5
E26
  8
DEFPOINTS
 62
     0
 10
109.2571353155252
 20
96.708191590337279
 30
0.0
  0
POINT
  5
E27
  8
DEFPOINTS
 62
     0
 10
139.2571353155252
 20
98.083191590337265
 30
0.0
  0
POINT
  5
E28
  8
DEFPOINTS
 62
     0
 10
139.2571353155252
 20
90.604506871985905
 30
0.0
  0
ENDBLK
  5
E2A
  8
0
  0
BLOCK
  8
0
  2
*D34
 70
     1
 10
0.0
 20
0.0
 30
0.0
  3
*D34
  1

  0
LINE
  5
EC5
  8
DIM
 62
     0
 10
109.0071353155252
 20
98.708191590337236
 30
0.0
 11
106.31206315712799
 21
98.708191590337236
 31
0.0
  0
LINE
  5
EC6
  8
DIM
 62
     0
 10
109.0071353155252
 20
101.95819159033719
 30
0.0
 11
106.31206315712799
 21
101.95819159033719
 31
0.0
  0
LINE
  5
EC7
  8
DIM
 62
     0
 10
106.81206315712799
 20
99.428191590337235
 30
0.0
 11
106.81206315712799
 21
99.499858257003865
 31
0.0
  0
LINE
  5
EC8
  8
DIM
 62
     0
 10
106.81206315712799
 20
101.23819159033719
 30
0.0
 11
106.81206315712799
 21
101.16652492367049
 31
0.0
  0
SOLID
  5
EC9
  8
DIM
 62
     0
 10
106.692063157128
 20
99.428191590337235
 30
0.0
 11
106.932063157128
 21
99.428191590337235
 31
0.0
 12
106.81206315712799
 22
98.708191590337236
 32
0.0
 13
106.81206315712799
 23
98.708191590337236
 33
0.0
  0
SOLID
  5
ECA
  8
DIM
 62
     0
 10
106.692063157128
 20
101.23819159033719
 30
0.0
 11
106.932063157128
 21
101.23819159033719
 31
0.0
 12
106.81206315712799
 22
101.95819159033719
 32
0.0
 13
106.81206315712799
 23
101.95819159033719
 33
0.0
  0
INSERT
  5
ECB
  8
DIM
  2
*U63
 10
0.0
 20
0.0
 30
0.0
  0
POINT
  5
ECC
  8
DEFPOINTS
 62
     0
 10
109.2571353155252
 20
98.708191590337236
 30
0.0
  0
POINT
  5
ECD
  8
DEFPOINTS
 62
     0
 10
109.2571353155252
 20
101.95819159033719
 30
0.0
  0
POINT
  5
ECE
  8
DEFPOINTS
 62
     0
 10
106.81206315712799
 20
101.95819159033719
 30
0.0
  0
ENDBLK
  5
E38
  8
0
  0
BLOCK
  8
0
  2
*D35
 70
     1
 10
0.0
 20
0.0
 30
0.0
  3
*D35
  1

  0
LINE
  5
E45
  8
DIM
 62
     0
 10
109.0071353155252
 20
98.708191590337236
 30
0.0
 11
107.2336424581019
 21
98.708191590337236
 31
0.0
  0
LINE
  5
E46
  8
DIM
 62
     0
 10
109.0071353155252
 20
96.708191590337279
 30
0.0
 11
107.2336424581019
 21
96.708191590337279
 31
0.0
  0
LINE
  5
E47
  8
DIM
 62
     0
 10
107.7336424581019
 20
99.428191590337235
 30
0.0
 11
107.7336424581019
 21
100.14819159033721
 31
0.0
  0
LINE
  5
E48
  8
DIM
 62
     0
 10
107.7336424581019
 20
95.988191590337294
 30
0.0
 11
107.7336424581019
 21
95.268191590337281
 31
0.0
  0
SOLID
  5
E49
  8
DIM
 62
     0
 10
107.61364245810191
 20
99.428191590337235
 30
0.0
 11
107.8536424581019
 21
99.428191590337235
 31
0.0
 12
107.7336424581019
 22
98.708191590337236
 32
0.0
 13
107.7336424581019
 23
98.708191590337236
 33
0.0
  0
SOLID
  5
E4A
  8
DIM
 62
     0
 10
107.61364245810191
 20
95.988191590337294
 30
0.0
 11
107.8536424581019
 21
95.988191590337294
 31
0.0
 12
107.7336424581019
 22
96.708191590337279
 32
0.0
 13
107.7336424581019
 23
96.708191590337279
 33
0.0
  0
TEXT
  5
E4B
  8
DIM
 62
     0
 10
107.3169757914352
 20
97.458191590337293
 30
0.0
 40
0.5
  1
2"
  7
ROMANS
  0
POINT
  5
E4C
  8
DEFPOINTS
 62
     0
 10
109.2571353155252
 20
98.708191590337236
 30
0.0
  0
POINT
  5
E4D
  8
DEFPOINTS
 62
     0
 10
109.2571353155252
 20
96.708191590337279
 30
0.0
  0
POINT
  5
E4E
  8
DEFPOINTS
 62
     0
 10
107.7336424581019
 20
96.708191590337279
 30
0.0
  0
ENDBLK
  5
E50
  8
0
  0
BLOCK
  8
0
  2
*D36
 70
     1
 10
0.0
 20
0.0
 30
0.0
  3
*D36
  1

  0
LINE
  5
E7A
  8
DIM
 62
     0
 10
121.0071353155252
 20
96.428191590337235
 30
0.0
 11
121.0071353155252
 21
96.550572542718172
 31
0.0
  0
LINE
  5
E7B
  8
DIM
 62
     0
 10
121.0071353155252
 20
97.988191590337223
 30
0.0
 11
121.0071353155252
 21
97.865810637956287
 31
0.0
  0
SOLID
  5
E7C
  8
DIM
 62
     0
 10
120.8871353155252
 20
96.428191590337235
 30
0.0
 11
121.12713531552519
 21
96.428191590337235
 31
0.0
 12
121.0071353155252
 22
95.708191590337236
 32
0.0
 13
121.0071353155252
 23
95.708191590337236
 33
0.0
  0
SOLID
  5
E7D
  8
DIM
 62
     0
 10
120.8871353155252
 20
97.988191590337223
 30
0.0
 11
121.12713531552519
 21
97.988191590337223
 31
0.0
 12
121.0071353155252
 22
98.708191590337222
 32
0.0
 13
121.0071353155252
 23
98.708191590337222
 33
0.0
  0
TEXT
  5
E7E
  8
DIM
 62
     0
 10
120.5904686488585
 20
96.95819159033725
 30
0.0
 40
0.5
  1
3"
  7
ROMANS
  0
POINT
  5
E7F
  8
DEFPOINTS
 62
     0
 10
121.0071353155252
 20
95.708191590337236
 30
0.0
  0
POINT
  5
E80
  8
DEFPOINTS
 62
     0
 10
121.0071353155252
 20
98.708191590337222
 30
0.0
  0
POINT
  5
E81
  8
DEFPOINTS
 62
     0
 10
121.0071353155252
 20
98.708191590337222
 30
0.0
  0
ENDBLK
  5
E5E
  8
0
  0
BLOCK
  8
0
  2
*D37
 70
     1
 10
0.0
 20
0.0
 30
0.0
  3
*D37
  1

  0
LINE
  5
EBD
  8
DIM
 62
     0
 10
111.78713531552521
 20
97.851703035407525
 30
0.0
 11
111.691659125049
 21
97.851703035407525
 31
0.0
  0
LINE
  5
EBE
  8
DIM
 62
     0
 10
109.9771353155252
 20
97.851703035407525
 30
0.0
 11
110.07261150600139
 21
97.851703035407525
 31
0.0
  0
SOLID
  5
EBF
  8
DIM
 62
     0
 10
111.78713531552521
 20
97.971703035407515
 30
0.0
 11
111.78713531552521
 21
97.73170303540752
 31
0.0
 12
112.5071353155252
 22
97.851703035407525
 32
0.0
 13
112.5071353155252
 23
97.851703035407525
 33
0.0
  0
SOLID
  5
EC0
  8
DIM
 62
     0
 10
109.9771353155252
 20
97.971703035407515
 30
0.0
 11
109.9771353155252
 21
97.73170303540752
 31
0.0
 12
109.2571353155252
 22
97.851703035407525
 32
0.0
 13
109.2571353155252
 23
97.851703035407525
 33
0.0
  0
INSERT
  5
EC1
  8
DIM
  2
*U62
 10
0.0
 20
0.0
 30
0.0
  0
POINT
  5
EC2
  8
DEFPOINTS
 62
     0
 10
112.5071353155252
 20
98.708191590337236
 30
0.0
  0
POINT
  5
EC3
  8
DEFPOINTS
 62
     0
 10
109.2571353155252
 20
98.708191590337236
 30
0.0
  0
POINT
  5
EC4
  8
DEFPOINTS
 62
     0
 10
109.2571353155252
 20
97.851703035407525
 30
0.0
  0
ENDBLK
  5
E8F
  8
0
  0
BLOCK
  8
0
  2
*D38
 70
     1
 10
0.0
 20
0.0
 30
0.0
  3
*D38
  1

  0
LINE
  5
EE6
  8
DIM
 62
     0
 10
127.7571353155252
 20
103.58319159033719
 30
0.0
 11
127.7571353155252
 21
102.80633145961799
 31
0.0
  0
LINE
  5
EE7
  8
DIM
 62
     0
 10
113.4771353155252
 20
103.30633145961799
 30
0.0
 11
119.3495162679061
 21
103.30633145961799
 31
0.0
  0
LINE
  5
EE8
  8
DIM
 62
     0
 10
127.03713531552521
 20
103.30633145961799
 30
0.0
 11
121.1647543631442
 21
103.30633145961799
 31
0.0
  0
SOLID
  5
EE9
  8
DIM
 62
     0
 10
113.4771353155252
 20
103.426331459618
 30
0.0
 11
113.4771353155252
 21
103.1863314596179
 31
0.0
 12
112.7571353155252
 22
103.30633145961799
 32
0.0
 13
112.7571353155252
 23
103.30633145961799
 33
0.0
  0
SOLID
  5
EEA
  8
DIM
 62
     0
 10
127.03713531552521
 20
103.426331459618
 30
0.0
 11
127.03713531552521
 21
103.1863314596179
 31
0.0
 12
127.7571353155252
 22
103.30633145961799
 32
0.0
 13
127.7571353155252
 23
103.30633145961799
 33
0.0
  0
TEXT
  5
EEB
  8
DIM
 62
     0
 10
119.566659125049
 20
103.05633145961799
 30
0.0
 40
0.5
  1
15"
  7
ROMANS
  0
POINT
  5
EEC
  8
DEFPOINTS
 62
     0
 10
112.7571353155252
 20
103.83319159033719
 30
0.0
  0
POINT
  5
EED
  8
DEFPOINTS
 62
     0
 10
127.7571353155252
 20
103.83319159033719
 30
0.0
  0
POINT
  5
EEE
  8
DEFPOINTS
 62
     0
 10
127.7571353155252
 20
103.30633145961799
 30
0.0
  0
ENDBLK
  5
EE5
  8
0
  0
BLOCK
  8
0
  2
*D39
 70
     1
 10
0.0
 20
0.0
 30
0.0
  3
*D39
  1

  0
LINE
  5
F05
  8
DIM
 62
     0
 10
142.335389082364
 20
96.901810454626172
 30
0.0
 11
142.335389082364
 21
94.327360580656759
 31
0.0
  0
LINE
  5
F06
  8
DIM
 62
     0
 10
144.335389082364
 20
96.901810454626172
 30
0.0
 11
144.335389082364
 21
94.327360580656759
 31
0.0
  0
LINE
  5
F07
  8
DIM
 62
     0
 10
141.615389082364
 20
94.827360580656773
 30
0.0
 11
140.89538908236401
 21
94.827360580656773
 31
0.0
  0
LINE
  5
F08
  8
DIM
 62
     0
 10
145.055389082364
 20
94.827360580656773
 30
0.0
 11
145.775389082364
 21
94.827360580656773
 31
0.0
  0
SOLID
  5
F09
  8
DIM
 62
     0
 10
141.615389082364
 20
94.947360580656778
 30
0.0
 11
141.615389082364
 21
94.707360580656768
 31
0.0
 12
142.335389082364
 22
94.827360580656773
 32
0.0
 13
142.335389082364
 23
94.827360580656773
 33
0.0
  0
SOLID
  5
F0A
  8
DIM
 62
     0
 10
145.055389082364
 20
94.947360580656778
 30
0.0
 11
145.055389082364
 21
94.707360580656768
 31
0.0
 12
144.335389082364
 22
94.827360580656773
 32
0.0
 13
144.335389082364
 23
94.827360580656773
 33
0.0
  0
TEXT
  5
F0B
  8
DIM
 62
     0
 10
142.91872241569729
 20
94.577360580656773
 30
0.0
 40
0.5
  1
2"
  7
ROMANS
  0
POINT
  5
F0C
  8
DEFPOINTS
 62
     0
 10
142.335389082364
 20
97.151810454626172
 30
0.0
  0
POINT
  5
F0D
  8
DEFPOINTS
 62
     0
 10
144.335389082364
 20
97.151810454626172
 30
0.0
  0
POINT
  5
F0E
  8
DEFPOINTS
 62
     0
 10
144.335389082364
 20
94.827360580656773
 30
0.0
  0
ENDBLK
  5
F10
  8
0
  0
BLOCK
  8
0
  2
*D40
 70
     1
 10
0.0
 20
0.0
 30
0.0
  3
*D40
  1

  0
LINE
  5
F1F
  8
DIM
 62
     0
 10
144.585389082364
 20
97.151810454626172
 30
0.0
 11
146.4686257279055
 21
97.151810454626172
 31
0.0
  0
LINE
  5
F20
  8
DIM
 62
     0
 10
143.585389082364
 20
100.4018104546261
 30
0.0
 11
146.4686257279055
 21
100.4018104546261
 31
0.0
  0
LINE
  5
F21
  8
DIM
 62
     0
 10
145.9686257279055
 20
96.431810454626174
 30
0.0
 11
145.9686257279055
 21
95.711810454626175
 31
0.0
  0
LINE
  5
F22
  8
DIM
 62
     0
 10
145.9686257279055
 20
101.1218104546261
 30
0.0
 11
145.9686257279055
 21
101.8418104546261
 31
0.0
  0
SOLID
  5
F23
  8
DIM
 62
     0
 10
145.8486257279055
 20
96.431810454626174
 30
0.0
 11
146.08862572790551
 21
96.431810454626174
 31
0.0
 12
145.9686257279055
 22
97.151810454626172
 32
0.0
 13
145.9686257279055
 23
97.151810454626172
 33
0.0
  0
SOLID
  5
F24
  8
DIM
 62
     0
 10
145.8486257279055
 20
101.1218104546261
 30
0.0
 11
146.08862572790551
 21
101.1218104546261
 31
0.0
 12
145.9686257279055
 22
100.4018104546261
 32
0.0
 13
145.9686257279055
 23
100.4018104546261
 33
0.0
  0
INSERT
  5
F25
  8
DIM
  2
*U64
 10
0.0
 20
0.0
 30
0.0
  0
POINT
  5
F26
  8
DEFPOINTS
 62
     0
 10
144.335389082364
 20
97.151810454626172
 30
0.0
  0
POINT
  5
F27
  8
DEFPOINTS
 62
     0
 10
143.335389082364
 20
100.4018104546261
 30
0.0
  0
POINT
  5
F28
  8
DEFPOINTS
 62
     0
 10
145.9686257279055
 20
100.4018104546261
 30
0.0
  0
ENDBLK
  5
F1E
  8
0
  0
BLOCK
  8
0
  2
*D41
 70
     1
 10
0.0
 20
0.0
 30
0.0
  3
*D41
  1

  0
LINE
  5
F99
  8
DIM
 62
     0
 10
142.335389082364
 20
104.7468289436339
 30
0.0
 11
142.335389082364
 21
103.003924264216
 31
0.0
  0
LINE
  5
F9A
  8
DIM
 62
     0
 10
144.335389082364
 20
104.7468289436339
 30
0.0
 11
144.335389082364
 21
103.003924264216
 31
0.0
  0
LINE
  5
F9B
  8
DIM
 62
     0
 10
141.615389082364
 20
103.5039242642161
 30
0.0
 11
140.89538908236401
 21
103.5039242642161
 31
0.0
  0
LINE
  5
F9C
  8
DIM
 62
     0
 10
145.055389082364
 20
103.5039242642161
 30
0.0
 11
145.775389082364
 21
103.5039242642161
 31
0.0
  0
SOLID
  5
F9D
  8
DIM
 62
     0
 10
141.615389082364
 20
103.623924264216
 30
0.0
 11
141.615389082364
 21
103.38392426421601
 31
0.0
 12
142.335389082364
 22
103.5039242642161
 32
0.0
 13
142.335389082364
 23
103.5039242642161
 33
0.0
  0
SOLID
  5
F9E
  8
DIM
 62
     0
 10
145.055389082364
 20
103.623924264216
 30
0.0
 11
145.055389082364
 21
103.38392426421601
 31
0.0
 12
144.335389082364
 22
103.5039242642161
 32
0.0
 13
144.335389082364
 23
103.5039242642161
 33
0.0
  0
TEXT
  5
F9F
  8
DIM
 62
     0
 10
142.91872241569729
 20
103.253924264216
 30
0.0
 40
0.5
  1
2"
  7
ROMANS
  0
POINT
  5
FA0
  8
DEFPOINTS
 62
     0
 10
142.335389082364
 20
104.9968289436339
 30
0.0
  0
POINT
  5
FA1
  8
DEFPOINTS
 62
     0
 10
144.335389082364
 20
104.9968289436339
 30
0.0
  0
POINT
  5
FA2
  8
DEFPOINTS
 62
     0
 10
144.335389082364
 20
103.5039242642161
 30
0.0
  0
ENDBLK
  5
F38
  8
0
  0
BLOCK
  8
0
  2
*D42
 70
     1
 10
0.0
 20
0.0
 30
0.0
  3
*D42
  1

  0
LINE
  5
F6E
  8
DIM
 62
     0
 10
144.585389082364
 20
104.9968289436339
 30
0.0
 11
146.46862572790559
 21
104.9968289436339
 31
0.0
  0
LINE
  5
F6F
  8
DIM
 62
     0
 10
143.585389082364
 20
108.7468289436339
 30
0.0
 11
146.46862572790559
 21
108.7468289436339
 31
0.0
  0
LINE
  5
F70
  8
DIM
 62
     0
 10
145.9686257279055
 20
105.7168289436339
 30
0.0
 11
145.9686257279055
 21
105.9284956103005
 31
0.0
  0
LINE
  5
F71
  8
DIM
 62
     0
 10
145.9686257279055
 20
108.0268289436339
 30
0.0
 11
145.9686257279055
 21
107.8151622769672
 31
0.0
  0
SOLID
  5
F72
  8
DIM
 62
     0
 10
145.8486257279055
 20
105.7168289436339
 30
0.0
 11
146.08862572790559
 21
105.7168289436339
 31
0.0
 12
145.9686257279055
 22
104.9968289436339
 32
0.0
 13
145.9686257279055
 23
104.9968289436339
 33
0.0
  0
SOLID
  5
F73
  8
DIM
 62
     0
 10
145.8486257279055
 20
108.0268289436339
 30
0.0
 11
146.08862572790559
 21
108.0268289436339
 31
0.0
 12
145.9686257279055
 22
108.7468289436339
 32
0.0
 13
145.9686257279055
 23
108.7468289436339
 33
0.0
  0
INSERT
  5
F74
  8
DIM
  2
*U65
 10
0.0
 20
0.0
 30
0.0
  0
POINT
  5
F75
  8
DEFPOINTS
 62
     0
 10
144.335389082364
 20
104.9968289436339
 30
0.0
  0
POINT
  5
F76
  8
DEFPOINTS
 62
     0
 10
143.335389082364
 20
108.7468289436339
 30
0.0
  0
POINT
  5
F77
  8
DEFPOINTS
 62
     0
 10
145.9686257279055
 20
108.7468289436339
 30
0.0
  0
ENDBLK
  5
F45
  8
0
  0
BLOCK
  8
0
  2
*D43
 70
     1
 10
0.0
 20
0.0
 30
0.0
  3
*D43
  1

  0
LINE
  5
1018
  8
DIM
 62
     0
 10
141.8201100520136
 20
90.309093111323165
 30
0.0
 11
141.8201100520136
 21
89.458346473999512
 31
0.0
  0
LINE
  5
1019
  8
DIM
 62
     0
 10
144.8201100520136
 20
90.605352954323166
 30
0.0
 11
144.8201100520136
 21
89.458346473999512
 31
0.0
  0
LINE
  5
101A
  8
DIM
 62
     0
 10
142.5401100520136
 20
89.958346473999498
 30
0.0
 11
142.61487195677549
 21
89.958346473999498
 31
0.0
  0
LINE
  5
101B
  8
DIM
 62
     0
 10
144.1001100520136
 20
89.958346473999498
 30
0.0
 11
144.02534814725169
 21
89.958346473999498
 31
0.0
  0
SOLID
  5
101C
  8
DIM
 62
     0
 10
142.5401100520136
 20
90.078346473999517
 30
0.0
 11
142.5401100520136
 21
89.838346473999493
 31
0.0
 12
141.8201100520136
 22
89.958346473999498
 32
0.0
 13
141.8201100520136
 23
89.958346473999498
 33
0.0
  0
SOLID
  5
101D
  8
DIM
 62
     0
 10
144.1001100520136
 20
90.078346473999517
 30
0.0
 11
144.1001100520136
 21
89.838346473999493
 31
0.0
 12
144.8201100520136
 22
89.958346473999498
 32
0.0
 13
144.8201100520136
 23
89.958346473999498
 33
0.0
  0
TEXT
  5
101E
  8
DIM
 62
     0
 10
142.90344338534689
 20
89.708346473999526
 30
0.0
 40
0.5
  1
3"
  7
ROMANS
  0
POINT
  5
101F
  8
DEFPOINTS
 62
     0
 10
141.8201100520136
 20
90.559093111323165
 30
0.0
  0
POINT
  5
1020
  8
DEFPOINTS
 62
     0
 10
144.8201100520136
 20
90.855352954323166
 30
0.0
  0
POINT
  5
1021
  8
DEFPOINTS
 62
     0
 10
144.8201100520136
 20
89.958346473999498
 30
0.0
  0
ENDBLK
  5
FBE
  8
0
  0
BLOCK
  8
0
  2
*D44
 70
     1
 10
0.0
 20
0.0
 30
0.0
  3
*D44
  1

  0
LINE
  5
100E
  8
DIM
 62
     0
 10
141.5701100520136
 20
91.309093111323165
 30
0.0
 11
140.47029313392909
 21
91.309093111323165
 31
0.0
  0
LINE
  5
100F
  8
DIM
 62
     0
 10
141.5701100520136
 20
90.559093111323165
 30
0.0
 11
140.47029313392909
 21
90.559093111323165
 31
0.0
  0
LINE
  5
1010
  8
DIM
 62
     0
 10
140.97029313392909
 20
92.029093111323164
 30
0.0
 11
140.97029313392909
 21
92.749093111323177
 31
0.0
  0
LINE
  5
1011
  8
DIM
 62
     0
 10
140.97029313392909
 20
89.839093111323166
 30
0.0
 11
140.97029313392909
 21
89.119093111323167
 31
0.0
  0
SOLID
  5
1012
  8
DIM
 62
     0
 10
140.85029313392911
 20
92.029093111323164
 30
0.0
 11
141.09029313392909
 21
92.029093111323164
 31
0.0
 12
140.97029313392909
 22
91.309093111323165
 32
0.0
 13
140.97029313392909
 23
91.309093111323165
 33
0.0
  0
SOLID
  5
1013
  8
DIM
 62
     0
 10
140.85029313392911
 20
89.839093111323166
 30
0.0
 11
141.09029313392909
 21
89.839093111323166
 31
0.0
 12
140.97029313392909
 22
90.559093111323165
 32
0.0
 13
140.97029313392909
 23
90.559093111323165
 33
0.0
  0
INSERT
  5
1014
  8
DIM
  2
*U67
 10
0.0
 20
0.0
 30
0.0
  0
POINT
  5
1015
  8
DEFPOINTS
 62
     0
 10
141.8201100520136
 20
91.309093111323165
 30
0.0
  0
POINT
  5
1016
  8
DEFPOINTS
 62
     0
 10
141.8201100520136
 20
90.559093111323165
 30
0.0
  0
POINT
  5
1017
  8
DEFPOINTS
 62
     0
 10
140.97029313392909
 20
90.559093111323165
 30
0.0
  0
ENDBLK
  5
FD6
  8
0
  0
BLOCK
  8
0
  2
*D45
 70
     1
 10
0.0
 20
0.0
 30
0.0
  3
*D45
  1

  0
LINE
  5
1022
  8
DIM
 62
     0
 10
145.0701100520136
 20
91.012833268323163
 30
0.0
 11
146.07154312485389
 21
91.012833268323163
 31
0.0
  0
LINE
  5
1023
  8
DIM
 62
     0
 10
145.0701100520136
 20
90.855352954323166
 30
0.0
 11
146.07154312485389
 21
90.855352954323166
 31
0.0
  0
LINE
  5
1024
  8
DIM
 62
     0
 10
145.57154312485389
 20
91.732833268323176
 30
0.0
 11
145.57154312485389
 21
92.452833268323161
 31
0.0
  0
LINE
  5
1025
  8
DIM
 62
     0
 10
145.57154312485389
 20
90.135352954323167
 30
0.0
 11
145.57154312485389
 21
89.415352954323154
 31
0.0
  0
SOLID
  5
1026
  8
DIM
 62
     0
 10
145.45154312485391
 20
91.732833268323176
 30
0.0
 11
145.69154312485389
 21
91.732833268323176
 31
0.0
 12
145.57154312485389
 22
91.012833268323163
 32
0.0
 13
145.57154312485389
 23
91.012833268323163
 33
0.0
  0
SOLID
  5
1027
  8
DIM
 62
     0
 10
145.45154312485391
 20
90.135352954323167
 30
0.0
 11
145.69154312485389
 21
90.135352954323167
 31
0.0
 12
145.57154312485389
 22
90.855352954323166
 32
0.0
 13
145.57154312485389
 23
90.855352954323166
 33
0.0
  0
TEXT
  5
1028
  8
DIM
 62
     0
 10
145.82154312485389
 20
87.245829144799359
 30
0.0
 40
0.5
  1
4mm
 50
90.0
  7
ROMANS
  0
POINT
  5
1029
  8
DEFPOINTS
 62
     0
 10
144.8201100520136
 20
91.012833268323163
 30
0.0
  0
POINT
  5
102A
  8
DEFPOINTS
 62
     0
 10
144.8201100520136
 20
90.855352954323166
 30
0.0
  0
POINT
  5
102B
  8
DEFPOINTS
 62
     0
 10
145.57154312485389
 20
90.855352954323166
 30
0.0
  0
ENDBLK
  5
FE4
  8
0
  0
BLOCK
  8
0
  2
*U46
 70
     1
 10
0.0
 20
0.0
 30
0.0
  3
*U46
  1

  0
TEXT
  5
1050
  8
DIM
 62
     0
 10
127.5565067079702
 20
124.8011490819367
 30
0.0
 40
1.0
  1
3
 50
90.0
  7
ROMANS
  0
LINE
  5
1051
  8
DIM
 10
127.7231733746368
 20
124.539244320032
 30
0.0
 11
127.7231733746368
 21
126.01543479622249
 31
0.0
  0
TEXT
  5
1052
  8
DIM
 62
     0
 10
128.8898400413035
 20
124.25353003431771
 30
0.0
 40
1.0
  1
16
 50
90.0
  7
ROMANS
  0
TEXT
  5
1053
  8
DIM
 62
     0
 10
128.22317337463679
 20
126.1582919390796
 30
0.0
 40
1.0
  1
"
 50
90.0
  7
ROMANS
  0
ENDBLK
  5
1055
  8
0
  0
BLOCK
  8
0
  2
*U47
 70
     1
 10
0.0
 20
0.0
 30
0.0
  3
*U47
  1

  0
TEXT
  5
1057
  8
DIM
 62
     0
 10
149.58603336040261
 20
148.78325815451419
 30
0.0
 40
0.5
  1
5
  7
ROMANS
  0
TEXT
  5
1058
  8
DIM
 62
     0
 10
150.02650955087881
 20
149.1165914878475
 30
0.0
 40
0.5
  1
1
  7
ROMANS
  0
LINE
  5
1059
  8
DIM
 10
150.06222383659309
 20
149.0332581545141
 30
0.0
 11
150.39555716992641
 21
149.0332581545141
 31
0.0
  0
TEXT
  5
105A
  8
DIM
 62
     0
 10
149.99079526516451
 20
148.44992482118079
 30
0.0
 40
0.5
  1
2
  7
ROMANS
  0
TEXT
  5
105B
  8
DIM
 62
     0
 10
150.46698574135499
 20
148.78325815451419
 30
0.0
 40
0.5
  1
"
  7
ROMANS
  0
ENDBLK
  5
105D
  8
0
  0
BLOCK
  8
0
  2
*U48
 70
     1
 10
0.0
 20
0.0
 30
0.0
  3
*U48
  1

  0
TEXT
  5
105F
  8
DIM
 62
     0
 10
123.38343090644049
 20
149.28325815451419
 30
0.0
 40
0.5
  1
6
  7
ROMANS
  0
TEXT
  5
1060
  8
DIM
 62
     0
 10
123.8239070969167
 20
149.6165914878475
 30
0.0
 40
0.5
  1
1
  7
ROMANS
  0
LINE
  5
1061
  8
DIM
 10
123.859621382631
 20
149.5332581545141
 30
0.0
 11
124.1929547159644
 21
149.5332581545141
 31
0.0
  0
TEXT
  5
1062
  8
DIM
 62
     0
 10
123.78819281120251
 20
148.94992482118079
 30
0.0
 40
0.5
  1
2
  7
ROMANS
  0
TEXT
  5
1063
  8
DIM
 62
     0
 10
124.2643832873929
 20
149.28325815451419
 30
0.0
 40
0.5
  1
"
  7
ROMANS
  0
ENDBLK
  5
1065
  8
0
  0
BLOCK
  8
0
  2
*U49
 70
     1
 10
0.0
 20
0.0
 30
0.0
  3
*U49
  1

  0
TEXT
  5
1067
  8
DIM
 62
     0
 10
146.63425501349741
 20
144.31659148784749
 30
0.0
 40
0.5
  1
1
 50
90.0
  7
ROMANS
  0
TEXT
  5
1068
  8
DIM
 62
     0
 10
146.30092168016409
 20
144.75706767832369
 30
0.0
 40
0.5
  1
1
 50
90.0
  7
ROMANS
  0
LINE
  5
1069
  8
DIM
 10
146.38425501349749
 20
144.792781964038
 30
0.0
 11
146.38425501349749
 21
145.1261152973714
 31
0.0
  0
TEXT
  5
106A
  8
DIM
 62
     0
 10
146.96758834683081
 20
144.72135339260939
 30
0.0
 40
0.5
  1
2
 50
90.0
  7
ROMANS
  0
TEXT
  5
106B
  8
DIM
 62
     0
 10
146.63425501349741
 20
145.1975438687999
 30
0.0
 40
0.5
  1
"
 50
90.0
  7
ROMANS
  0
ENDBLK
  5
106D
  8
0
  0
BLOCK
  8
0
  2
*U50
 70
     1
 10
0.0
 20
0.0
 30
0.0
  3
*U50
  1

  0
TEXT
  5
106F
  8
DIM
 62
     0
 10
112.7545062511231
 20
126.0019266782955
 30
0.0
 40
0.5
  1
20
  7
ROMANS
  0
TEXT
  5
1070
  8
DIM
 62
     0
 10
113.68307767969451
 20
126.3352600116288
 30
0.0
 40
0.5
  1
1
  7
ROMANS
  0
LINE
  5
1071
  8
DIM
 10
113.7068872035041
 20
126.2519266782955
 30
0.0
 11
114.0640300606469
 21
126.2519266782955
 31
0.0
  0
TEXT
  5
1072
  8
DIM
 62
     0
 10
113.6354586320755
 20
125.6685933449621
 30
0.0
 40
0.5
  1
4
  7
ROMANS
  0
TEXT
  5
1073
  8
DIM
 62
     0
 10
114.1354586320755
 20
126.0019266782955
 30
0.0
 40
0.5
  1
"
  7
ROMANS
  0
ENDBLK
  5
1075
  8
0
  0
BLOCK
  8
0
  2
*U51
 70
     1
 10
0.0
 20
0.0
 30
0.0
  3
*U51
  1

  0
TEXT
  5
1077
  8
DIM
 62
     0
 10
103.4605432032043
 20
133.63101281900839
 30
0.0
 40
0.5
  1
1
 50
84.289406862501011
  7
ROMANS
  0
TEXT
  5
1078
  8
DIM
 62
     0
 10
103.17269315889349
 20
134.10247091627451
 30
0.0
 40
0.5
  1
1
 50
84.289406862501011
  7
ROMANS
  0
LINE
  5
1079
  8
DIM
 10
103.2591666289951
 20
134.1297159821969
 30
0.0
 11
103.2923345353355
 21
134.46139504560031
 31
0.0
  0
TEXT
  5
107A
  8
DIM
 62
     0
 10
103.8324975814495
 20
134.00059806108641
 30
0.0
 40
0.5
  1
2
 50
84.289406862501011
  7
ROMANS
  0
TEXT
  5
107B
  8
DIM
 62
     0
 10
103.54820124138951
 20
134.50759320085999
 30
0.0
 40
0.5
  1
"
 50
84.289406862501011
  7
ROMANS
  0
ENDBLK
  5
107D
  8
0
  0
BLOCK
  8
0
  2
*U52
 70
     1
 10
0.0
 20
0.0
 30
0.0
  3
*U52
  1

  0
TEXT
  5
107F
  8
DIM
 62
     0
 10
120.66740082974449
 20
122.7154347962224
 30
0.0
 40
0.5
  1
1
 50
90.0
  7
ROMANS
  0
LINE
  5
1080
  8
DIM
 10
120.75073416307789
 20
122.739244320032
 30
0.0
 11
120.75073416307789
 21
123.0963871771748
 31
0.0
  0
TEXT
  5
1081
  8
DIM
 62
     0
 10
121.33406749641119
 20
122.6678157486034
 30
0.0
 40
0.5
  1
4
 50
90.0
  7
ROMANS
  0
TEXT
  5
1082
  8
DIM
 62
     0
 10
121.00073416307789
 20
123.1678157486034
 30
0.0
 40
0.5
  1
"
 50
90.0
  7
ROMANS
  0
ENDBLK
  5
1084
  8
0
  0
BLOCK
  8
0
  2
*U53
 70
     1
 10
0.0
 20
0.0
 30
0.0
  3
*U53
  1

  0
TEXT
  5
1086
  8
DIM
 62
     0
 10
115.20095729057201
 20
110.2694380135238
 30
0.0
 40
0.5
  1
3
  7
ROMANS
  0
TEXT
  5
1087
  8
DIM
 62
     0
 10
115.6414334810482
 20
110.6027713468572
 30
0.0
 40
0.5
  1
1
  7
ROMANS
  0
LINE
  5
1088
  8
DIM
 10
115.6771477667624
 20
110.5194380135239
 30
0.0
 11
116.0104811000957
 21
110.5194380135239
 31
0.0
  0
TEXT
  5
1089
  8
DIM
 62
     0
 10
115.6057191953339
 20
109.9361046801905
 30
0.0
 40
0.5
  1
2
  7
ROMANS
  0
TEXT
  5
108A
  8
DIM
 62
     0
 10
116.0819096715243
 20
110.2694380135238
 30
0.0
 40
0.5
  1
"
  7
ROMANS
  0
ENDBLK
  5
108C
  8
0
  0
BLOCK
  8
0
  2
*U54
 70
     1
 10
0.0
 20
0.0
 30
0.0
  3
*U54
  1

  0
TEXT
  5
108E
  8
DIM
 62
     0
 10
114.70619289266619
 20
122.14791860656931
 30
0.0
 40
0.5
  1
2
  7
ROMANS
  0
TEXT
  5
108F
  8
DIM
 62
     0
 10
115.1466690831424
 20
122.48125193990271
 30
0.0
 40
0.5
  1
1
  7
ROMANS
  0
LINE
  5
1090
  8
DIM
 10
115.1823833688567
 20
122.39791860656941
 30
0.0
 11
115.51571670219001
 21
122.39791860656941
 31
0.0
  0
TEXT
  5
1091
  8
DIM
 62
     0
 10
115.11095479742811
 20
121.81458527323601
 30
0.0
 40
0.5
  1
2
  7
ROMANS
  0
TEXT
  5
1092
  8
DIM
 62
     0
 10
115.5871452736186
 20
122.14791860656931
 30
0.0
 40
0.5
  1
"
  7
ROMANS
  0
ENDBLK
  5
1094
  8
0
  0
BLOCK
  8
0
  2
*U55
 70
     1
 10
0.0
 20
0.0
 30
0.0
  3
*U55
  1

  0
TEXT
  5
1096
  8
DIM
 62
     0
 10
110.20095729057191
 20
117.1452844241073
 30
0.0
 40
0.5
  1
4
  7
ROMANS
  0
TEXT
  5
1097
  8
DIM
 62
     0
 10
110.6414334810482
 20
117.4786177574407
 30
0.0
 40
0.5
  1
1
  7
ROMANS
  0
LINE
  5
1098
  8
DIM
 10
110.6771477667624
 20
117.3952844241074
 30
0.0
 11
111.0104811000958
 21
117.3952844241074
 31
0.0
  0
TEXT
  5
1099
  8
DIM
 62
     0
 10
110.6057191953339
 20
116.811951090774
 30
0.0
 40
0.5
  1
2
  7
ROMANS
  0
TEXT
  5
109A
  8
DIM
 62
     0
 10
111.0819096715243
 20
117.1452844241073
 30
0.0
 40
0.5
  1
"
  7
ROMANS
  0
ENDBLK
  5
109C
  8
0
  0
BLOCK
  8
0
  2
*U56
 70
     1
 10
0.0
 20
0.0
 30
0.0
  3
*U56
  1

  0
TEXT
  5
109E
  8
DIM
 62
     0
 10
103.0273287640771
 20
116.814244320032
 30
0.0
 40
0.5
  1
7
  7
ROMANS
  0
TEXT
  5
109F
  8
DIM
 62
     0
 10
103.4439954307438
 20
117.1475776533653
 30
0.0
 40
0.5
  1
3
  7
ROMANS
  0
LINE
  5
10A0
  8
DIM
 10
103.50351924026759
 20
117.064244320032
 30
0.0
 11
103.8606620974105
 21
117.064244320032
 31
0.0
  0
TEXT
  5
10A1
  8
DIM
 62
     0
 10
103.432090668839
 20
116.4809109866986
 30
0.0
 40
0.5
  1
4
  7
ROMANS
  0
TEXT
  5
10A2
  8
DIM
 62
     0
 10
103.932090668839
 20
116.814244320032
 30
0.0
 40
0.5
  1
"
  7
ROMANS
  0
ENDBLK
  5
10A4
  8
0
  0
BLOCK
  8
0
  2
*U57
 70
     1
 10
0.0
 20
0.0
 30
0.0
  3
*U57
  1

  0
TEXT
  5
10A6
  8
DIM
 62
     0
 10
110.70095729057201
 20
110.2694380135238
 30
0.0
 40
0.5
  1
5
  7
ROMANS
  0
TEXT
  5
10A7
  8
DIM
 62
     0
 10
111.1414334810481
 20
110.6027713468572
 30
0.0
 40
0.5
  1
1
  7
ROMANS
  0
LINE
  5
10A8
  8
DIM
 10
111.1771477667624
 20
110.5194380135239
 30
0.0
 11
111.5104811000958
 21
110.5194380135239
 31
0.0
  0
TEXT
  5
10A9
  8
DIM
 62
     0
 10
111.1057191953338
 20
109.9361046801905
 30
0.0
 40
0.5
  1
2
  7
ROMANS
  0
TEXT
  5
10AA
  8
DIM
 62
     0
 10
111.5819096715243
 20
110.2694380135238
 30
0.0
 40
0.5
  1
"
  7
ROMANS
  0
ENDBLK
  5
10AC
  8
0
  0
BLOCK
  8
0
  2
*U58
 70
     1
 10
0.0
 20
0.0
 30
0.0
  3
*U58
  1

  0
TEXT
  5
10AE
  8
DIM
 62
     0
 10
104.1146271601088
 20
113.814244320032
 30
0.0
 40
0.5
  1
1
  7
ROMANS
  0
TEXT
  5
10AF
  8
DIM
 62
     0
 10
104.5312938267755
 20
114.1475776533653
 30
0.0
 40
0.5
  1
3
  7
ROMANS
  0
LINE
  5
10B0
  8
DIM
 10
104.59081763629931
 20
114.064244320032
 30
0.0
 11
104.9479604934422
 21
114.064244320032
 31
0.0
  0
TEXT
  5
10B1
  8
DIM
 62
     0
 10
104.51938906487069
 20
113.4809109866987
 30
0.0
 40
0.5
  1
4
  7
ROMANS
  0
TEXT
  5
10B2
  8
DIM
 62
     0
 10
105.01938906487069
 20
113.814244320032
 30
0.0
 40
0.5
  1
"
  7
ROMANS
  0
ENDBLK
  5
10B4
  8
0
  0
BLOCK
  8
0
  2
*U59
 70
     1
 10
0.0
 20
0.0
 30
0.0
  3
*U59
  1

  0
TEXT
  5
10B6
  8
DIM
 62
     0
 10
105.3940404162109
 20
115.439244320032
 30
0.0
 40
0.5
  1
1
  7
ROMANS
  0
TEXT
  5
10B7
  8
DIM
 62
     0
 10
105.8345166066871
 20
115.7725776533653
 30
0.0
 40
0.5
  1
1
  7
ROMANS
  0
LINE
  5
10B8
  8
DIM
 10
105.87023089240139
 20
115.689244320032
 30
0.0
 11
106.2035642257347
 21
115.689244320032
 31
0.0
  0
TEXT
  5
10B9
  8
DIM
 62
     0
 10
105.7988023209728
 20
115.1059109866987
 30
0.0
 40
0.5
  1
2
  7
ROMANS
  0
TEXT
  5
10BA
  8
DIM
 62
     0
 10
106.27499279716331
 20
115.439244320032
 30
0.0
 40
0.5
  1
"
  7
ROMANS
  0
ENDBLK
  5
10BC
  8
0
  0
BLOCK
  8
0
  2
*U60
 70
     1
 10
0.0
 20
0.0
 30
0.0
  3
*U60
  1

  0
TEXT
  5
10C5
  8
DIM
 62
     0
 10
138.32395059242441
 20
113.6435375936594
 30
0.0
 40
0.5
  1
3
  7
ROMANS
  0
LINE
  5
10C6
  8
DIM
 10
138.38347440194821
 20
113.5602042603261
 30
0.0
 11
138.7406172590911
 21
113.5602042603261
 31
0.0
  0
TEXT
  5
10C7
  8
DIM
 62
     0
 10
138.31204583051959
 20
112.9768709269927
 30
0.0
 40
0.5
  1
4
  7
ROMANS
  0
TEXT
  5
10C8
  8
DIM
 62
     0
 10
138.81204583051959
 20
113.310204260326
 30
0.0
 40
0.5
  1
"
  7
ROMANS
  0
ENDBLK
  5
10CA
  8
0
  0
BLOCK
  8
0
  2
*U61
 70
     1
 10
0.0
 20
0.0
 30
0.0
  3
*U61
  1

  0
TEXT
  5
10CC
  8
DIM
 62
     0
 10
123.26969134874849
 20
108.07328730938509
 30
0.0
 40
0.5
  1
30
  7
ROMANS
  0
TEXT
  5
10CD
  8
DIM
 62
     0
 10
124.1506437297008
 20
108.40662064271839
 30
0.0
 40
0.5
  1
3
  7
ROMANS
  0
LINE
  5
10CE
  8
DIM
 10
124.2220723011294
 20
108.32328730938509
 30
0.0
 11
124.5554056344627
 21
108.32328730938509
 31
0.0
  0
TEXT
  5
10CF
  8
DIM
 62
     0
 10
124.1506437297008
 20
107.73995397605169
 30
0.0
 40
0.5
  1
8
  7
ROMANS
  0
TEXT
  5
10D0
  8
DIM
 62
     0
 10
124.6268342058913
 20
108.07328730938509
 30
0.0
 40
0.5
  1
"
  7
ROMANS
  0
ENDBLK
  5
10D2
  8
0
  0
BLOCK
  8
0
  2
*U62
 70
     1
 10
0.0
 20
0.0
 30
0.0
  3
*U62
  1

  0
TEXT
  5
10D4
  8
DIM
 62
     0
 10
110.2511829345728
 20
97.601703035407525
 30
0.0
 40
0.5
  1
3
  7
ROMANS
  0
TEXT
  5
10D5
  8
DIM
 62
     0
 10
110.7035638869538
 20
97.935036368740867
 30
0.0
 40
0.5
  1
1
  7
ROMANS
  0
LINE
  5
10D6
  8
DIM
 10
110.72737341076331
 20
97.851703035407539
 30
0.0
 11
111.0845162679061
 21
97.851703035407539
 31
0.0
  0
TEXT
  5
10D7
  8
DIM
 62
     0
 10
110.65594483933469
 20
97.268369702074196
 30
0.0
 40
0.5
  1
4
  7
ROMANS
  0
TEXT
  5
10D8
  8
DIM
 62
     0
 10
111.15594483933469
 20
97.601703035407525
 30
0.0
 40
0.5
  1
"
  7
ROMANS
  0
ENDBLK
  5
10DA
  8
0
  0
BLOCK
  8
0
  2
*U63
 70
     1
 10
0.0
 20
0.0
 30
0.0
  3
*U63
  1

  0
TEXT
  5
10DC
  8
DIM
 62
     0
 10
106.1811107761756
 20
100.08319159033719
 30
0.0
 40
0.5
  1
3
  7
ROMANS
  0
TEXT
  5
10DD
  8
DIM
 62
     0
 10
106.63349172855661
 20
100.41652492367049
 30
0.0
 40
0.5
  1
1
  7
ROMANS
  0
LINE
  5
10DE
  8
DIM
 10
106.6573012523661
 20
100.33319159033719
 30
0.0
 11
107.0144441095089
 21
100.33319159033719
 31
0.0
  0
TEXT
  5
10DF
  8
DIM
 62
     0
 10
106.5858726809375
 20
99.749858257003908
 30
0.0
 40
0.5
  1
4
  7
ROMANS
  0
TEXT
  5
10E0
  8
DIM
 62
     0
 10
107.0858726809375
 20
100.08319159033719
 30
0.0
 40
0.5
  1
"
  7
ROMANS
  0
ENDBLK
  5
10E2
  8
0
  0
BLOCK
  8
0
  2
*U64
 70
     1
 10
0.0
 20
0.0
 30
0.0
  3
*U64
  1

  0
TEXT
  5
10EB
  8
DIM
 62
     0
 10
145.3376733469531
 20
98.526810454626172
 30
0.0
 40
0.5
  1
3
  7
ROMANS
  0
TEXT
  5
10EC
  8
DIM
 62
     0
 10
145.790054299334
 20
98.860143787959515
 30
0.0
 40
0.5
  1
1
  7
ROMANS
  0
LINE
  5
10ED
  8
DIM
 10
145.81386382314361
 20
98.776810454626187
 30
0.0
 11
146.17100668028641
 21
98.776810454626187
 31
0.0
  0
TEXT
  5
10EE
  8
DIM
 62
     0
 10
145.74243525171499
 20
98.193477121292844
 30
0.0
 40
0.5
  1
4
  7
ROMANS
  0
TEXT
  5
10EF
  8
DIM
 62
     0
 10
146.24243525171499
 20
98.526810454626172
 30
0.0
 40
0.5
  1
"
  7
ROMANS
  0
ENDBLK
  5
10F1
  8
0
  0
BLOCK
  8
0
  2
*U65
 70
     1
 10
0.0
 20
0.0
 30
0.0
  3
*U65
  1

  0
TEXT
  5
10F3
  8
DIM
 62
     0
 10
145.3376733469531
 20
106.6218289436339
 30
0.0
 40
0.5
  1
3
  7
ROMANS
  0
TEXT
  5
10F4
  8
DIM
 62
     0
 10
145.75434001361981
 20
106.9551622769672
 30
0.0
 40
0.5
  1
3
  7
ROMANS
  0
LINE
  5
10F5
  8
DIM
 10
145.81386382314361
 20
106.8718289436339
 30
0.0
 11
146.1710066802865
 21
106.8718289436339
 31
0.0
  0
TEXT
  5
10F6
  8
DIM
 62
     0
 10
145.74243525171499
 20
106.2884956103005
 30
0.0
 40
0.5
  1
4
  7
ROMANS
  0
TEXT
  5
10F7
  8
DIM
 62
     0
 10
146.24243525171511
 20
106.6218289436339
 30
0.0
 40
0.5
  1
"
  7
ROMANS
  0
ENDBLK
  5
10F9
  8
0
  0
BLOCK
  8
0
  2
*U66
 70
     1
 10
0.0
 20
0.0
 30
0.0
  3
*U66
  1

  0
TEXT
  5
1100
  8
DIM
 10
142.55359717484961
 20
109.8811602337851
 30
0.0
 40
0.5
  1
Rear
  7
ROMANS
  0
TEXT
  5
1101
  8
DIM
 10
142.1209743424796
 20
109.0478269004518
 30
0.0
 40
0.5
  1
Former
  7
ROMANS
  0
ENDBLK
  5
1103
  8
0
  0
BLOCK
  8
0
  2
*U67
 70
     1
 10
0.0
 20
0.0
 30
0.0
  3
*U67
  1

  0
TEXT
  5
110A
  8
DIM
 62
     0
 10
140.88695980059569
 20
87.985283587513649
 30
0.0
 40
0.5
  1
3
 50
90.0
  7
ROMANS
  0
LINE
  5
110B
  8
DIM
 10
140.97029313392909
 20
88.044807397037474
 30
0.0
 11
140.97029313392909
 21
88.401950254180306
 31
0.0
  0
TEXT
  5
110C
  8
DIM
 62
     0
 10
141.5536264672624
 20
87.973378825608876
 30
0.0
 40
0.5
  1
4
 50
90.0
  7
ROMANS
  0
TEXT
  5
110D
  8
DIM
 62
     0
 10
141.22029313392909
 20
88.47337882560889
 30
0.0
 40
0.5
  1
"
 50
90.0
  7
ROMANS
  0
ENDBLK
  5
110F
  8
0
  0
BLOCK
  8
0
  2
*U68
 70
     1
 10
0.0
 20
0.0
 30
0.0
  3
*U68
  1

  0
TEXT
  5
1111
  8
DIM
 10
137.325811767159
 20
118.11150414854011
 30
0.0
 40
0.5
  1
Horizontal
  7
ROMANS
  0
TEXT
  5
1112
  8
DIM
 10
137.50120916600301
 20
117.2767257285015
 30
0.0
 40
0.5
  1
Stabilizer
  7
ROMANS
  0
TEXT
  5
1113
  8
DIM
 10
137.67750974403759
 20
116.4433923951682
 30
0.0
 40
0.5
  1
Elevator
  7
ROMANS
  0
ENDBLK
  5
1115
  8
0
  0
BLOCK
  8
0
  2
*U69
 70
     1
 10
0.0
 20
0.0
 30
0.0
  3
*U69
  1

  0
TEXT
  5
1117
  8
DIM
 10
117.5322388067659
 20
118.6525024712698
 30
0.0
 40
0.5
  1
Vertical
  7
ROMANS
  0
TEXT
  5
1118
  8
DIM
 10
117.2706781131243
 20
117.81772405123129
 30
0.0
 40
0.5
  1
Stabilizer
  7
ROMANS
  0
ENDBLK
  5
111A
  8
0
  0
ENDSEC
  0
SECTION
  2
ENTITIES
  0
LINE
  5
6AF
  8
WING
  6
HIDDEN
 10
100.014383287393
 20
146.28325815451419
 30
0.0
 11
148.01438328739289
 21
146.28325815451419
 31
0.0
1001
GENIUS_GENREC_14
1002
{
1000
PYDIR
1011
104.014383287393
1021
9.2233720396894542E+020
1031
0.0
1021
155.28325815451419
1031
0.0
1002
}
1002
{
1000
PXDIR
1011
144.01438328739289
1021
9.2233720396894542E+020
1031
0.0
1021
146.28325815451419
1031
0.0
1002
}
1002
{
1000
PORI
1011
104.014383287393
1021
9.2233720396894542E+020
1031
0.0
1021
146.28325815451419
1031
0.0
1002
}
1002
{
1000
PINS
1011
104.014383287393
1021
9.2233720396894542E+020
1031
0.0
1021
146.28325815451419
1031
0.0
1002
}
1002
{
1000
PINS2
1011
144.01438328739289
1021
9.2233720396894542E+020
1031
0.0
1021
155.28325815451419
1031
0.0
1002
}
1002
{
1000
C
1070
     1
1002
}
1001
GENIUS_GENODEF_13
1002
{
1000
HIER
1070
     0
1002
}
1002
{
1000
MANEDIT
1070
     0
1002
}
1002
{
1000
NOSEL
1070
     0
1002
}
1002
{
1000
BEHIND
1070
     0
1002
}
1002
{
1000
REACTOR
1002
}
1001
GENIUS_GENOBJ-N-REC_13
1002
{
1000
OWNER
1000
GEN
1002
}
  0
LINE
  5
6B1
  8
WING
 10
148.01438328739289
 20
153.2832581545141
 30
0.0
 11
144.01438328739329
 21
153.2832581545141
 31
0.0
1001
GENIUS_GENREC_14
1002
{
1000
PYDIR
1011
104.014383287393
1021
9.2233720396894542E+020
1031
0.0
1021
153.28325815451419
1031
0.0
1002
}
1002
{
1000
PXDIR
1011
144.01438328739289
1021
9.2233720396894542E+020
1031
0.0
1021
144.28325815451419
1031
0.0
1002
}
1002
{
1000
PORI
1011
104.014383287393
1021
9.2233720396894542E+020
1031
0.0
1021
144.28325815451419
1031
0.0
1002
}
1002
{
1000
PINS
1011
104.014383287393
1021
9.2233720396894542E+020
1031
0.0
1021
144.28325815451419
1031
0.0
1002
}
1002
{
1000
PINS2
1011
144.01438328739289
1021
9.2233720396894542E+020
1031
0.0
1021
153.28325815451419
1031
0.0
1002
}
1002
{
1000
C
1070
     1
1002
}
1001
GENIUS_GENODEF_13
1002
{
1000
HIER
1070
     0
1002
}
1002
{
1000
MANEDIT
1070
     0
1002
}
1002
{
1000
NOSEL
1070
     0
1002
}
1002
{
1000
BEHIND
1070
     0
1002
}
1002
{
1000
REACTOR
1002
}
1001
GENIUS_GENOBJ-N-REC_13
1002
{
1000
OWNER
1000
GEN
1002
}
  0
LINE
  5
6B2
  8
WING
 10
104.014383287393
 20
153.28325815451419
 30
0.0
 11
104.014383287393
 21
148.28325815451419
 31
0.0
1001
GENIUS_GENREC_14
1002
{
1000
PYDIR
1011
104.014383287393
1021
9.2233720396894542E+020
1031
0.0
1021
155.28325815451419
1031
0.0
1002
}
1002
{
1000
PXDIR
1011
144.01438328739289
1021
9.2233720396894542E+020
1031
0.0
1021
146.28325815451419
1031
0.0
1002
}
1002
{
1000
PORI
1011
104.014383287393
1021
9.2233720396894542E+020
1031
0.0
1021
146.28325815451419
1031
0.0
1002
}
1002
{
1000
PINS
1011
104.014383287393
1021
9.2233720396894542E+020
1031
0.0
1021
146.28325815451419
1031
0.0
1002
}
1002
{
1000
PINS2
1011
144.01438328739289
1021
9.2233720396894542E+020
1031
0.0
1021
155.28325815451419
1031
0.0
1002
}
1002
{
1000
C
1070
     1
1002
}
1001
GENIUS_GENODEF_13
1002
{
1000
HIER
1070
     0
1002
}
1002
{
1000
MANEDIT
1070
     0
1002
}
1002
{
1000
NOSEL
1070
     0
1002
}
1002
{
1000
BEHIND
1070
     0
1002
}
1002
{
1000
REACTOR
1002
}
1001
GENIUS_GENOBJ-N-REC_13
1002
{
1000
OWNER
1000
GEN
1002
}
  0
LINE
  5
6B3
  8
WING
 10
124.014383287393
 20
155.28325815451419
 30
0.0
 11
104.014383287393
 21
153.28325815451419
 31
0.0
1001
GENIUS_GENREC_14
1002
{
1000
PYDIR
1011
104.014383287393
1021
9.2233720396894542E+020
1031
0.0
1021
153.28325815451419
1031
0.0
1002
}
1002
{
1000
PXDIR
1011
144.01438328739289
1021
9.2233720396894542E+020
1031
0.0
1021
144.28325815451419
1031
0.0
1002
}
1002
{
1000
PORI
1011
104.014383287393
1021
9.2233720396894542E+020
1031
0.0
1021
144.28325815451419
1031
0.0
1002
}
1002
{
1000
PINS
1011
104.014383287393
1021
9.2233720396894542E+020
1031
0.0
1021
144.28325815451419
1031
0.0
1002
}
1002
{
1000
PINS2
1011
124.014383287393
1021
9.2233720396894542E+020
1031
0.0
1021
155.28325815451419
1031
0.0
1002
}
1002
{
1000
C
1070
     1
1002
}
1001
GENIUS_GENODEF_13
1002
{
1000
HIER
1070
     0
1002
}
1002
{
1000
MANEDIT
1070
     0
1002
}
1002
{
1000
NOSEL
1070
     0
1002
}
1002
{
1000
BEHIND
1070
     0
1002
}
1002
{
1000
REACTOR
1002
}
1001
GENIUS_GENOBJ-N-REC_13
1002
{
1000
OWNER
1000
GEN
1002
}
  0
LINE
  5
6B4
  8
WING
 10
124.014383287393
 20
155.28325815451419
 30
0.0
 11
144.01438328739289
 21
153.28325815451419
 31
0.0
1001
GENIUS_GENREC_14
1002
{
1000
PYDIR
1011
144.01438328739289
1021
9.2233720396894542E+020
1031
0.0
1021
153.28325815451419
1031
0.0
1002
}
1002
{
1000
PXDIR
1011
104.014383287393
1021
9.2233720396894542E+020
1031
0.0
1021
144.28325815451419
1031
0.0
1002
}
1002
{
1000
PORI
1011
144.01438328739289
1021
9.2233720396894542E+020
1031
0.0
1021
144.28325815451419
1031
0.0
1002
}
1002
{
1000
PINS
1011
144.01438328739289
1021
9.2233720396894542E+020
1031
0.0
1021
144.28325815451419
1031
0.0
1002
}
1002
{
1000
PINS2
1011
124.014383287393
1021
9.2233720396894542E+020
1031
0.0
1021
155.28325815451419
1031
0.0
1002
}
1002
{
1000
C
1070
     1
1002
}
1001
GENIUS_GENODEF_13
1002
{
1000
HIER
1070
     0
1002
}
1002
{
1000
MANEDIT
1070
     0
1002
}
1002
{
1000
NOSEL
1070
     0
1002
}
1002
{
1000
BEHIND
1070
     0
1002
}
1002
{
1000
REACTOR
1002
}
1001
GENIUS_GENOBJ-N-REC_13
1002
{
1000
OWNER
1000
GEN
1002
}
  0
LINE
  5
6B5
  8
WING
 10
124.014383287393
 20
146.28325815451419
 30
0.0
 11
104.014383287393
 21
148.28325815451419
 31
0.0
1001
GENIUS_GENREC_14
1002
{
1000
PYDIR
1011
104.014383287393
1021
9.2233720396894542E+020
1031
0.0
1021
148.28325815451419
1031
0.0
1002
}
1002
{
1000
PXDIR
1011
144.01438328739289
1021
9.2233720396894542E+020
1031
0.0
1021
139.28325815451419
1031
0.0
1002
}
1002
{
1000
PORI
1011
104.014383287393
1021
9.2233720396894542E+020
1031
0.0
1021
139.28325815451419
1031
0.0
1002
}
1002
{
1000
PINS
1011
104.014383287393
1021
9.2233720396894542E+020
1031
0.0
1021
139.28325815451419
1031
0.0
1002
}
1002
{
1000
PINS2
1011
124.014383287393
1021
9.2233720396894542E+020
1031
0.0
1021
146.28325815451419
1031
0.0
1002
}
1002
{
1000
C
1070
     1
1002
}
1001
GENIUS_GENODEF_13
1002
{
1000
HIER
1070
     0
1002
}
1002
{
1000
MANEDIT
1070
     0
1002
}
1002
{
1000
NOSEL
1070
     0
1002
}
1002
{
1000
BEHIND
1070
     0
1002
}
1002
{
1000
REACTOR
1002
}
1001
GENIUS_GENOBJ-N-REC_13
1002
{
1000
OWNER
1000
GEN
1002
}
  0
LINE
  5
6B6
  8
WING
 10
124.014383287393
 20
146.28325815451419
 30
0.0
 11
144.01438328739289
 21
148.28325815451419
 31
0.0
1001
GENIUS_GENREC_14
1002
{
1000
PYDIR
1011
144.01438328739289
1021
9.2233720396894542E+020
1031
0.0
1021
148.28325815451419
1031
0.0
1002
}
1002
{
1000
PXDIR
1011
104.014383287393
1021
9.2233720396894542E+020
1031
0.0
1021
139.28325815451419
1031
0.0
1002
}
1002
{
1000
PORI
1011
144.01438328739289
1021
9.2233720396894542E+020
1031
0.0
1021
139.28325815451419
1031
0.0
1002
}
1002
{
1000
PINS
1011
144.01438328739289
1021
9.2233720396894542E+020
1031
0.0
1021
139.28325815451419
1031
0.0
1002
}
1002
{
1000
PINS2
1011
124.014383287393
1021
9.2233720396894542E+020
1031
0.0
1021
146.28325815451419
1031
0.0
1002
}
1002
{
1000
C
1070
     1
1002
}
1001
GENIUS_GENODEF_13
1002
{
1000
HIER
1070
     0
1002
}
1002
{
1000
MANEDIT
1070
     0
1002
}
1002
{
1000
NOSEL
1070
     0
1002
}
1002
{
1000
BEHIND
1070
     0
1002
}
1002
{
1000
REACTOR
1002
}
1001
GENIUS_GENOBJ-N-REC_13
1002
{
1000
OWNER
1000
GEN
1002
}
  0
POLYLINE
  5
6BE
  8
SPAR
 66
     1
 10
0.0
 20
0.0
 30
0.0
 40
0.25
 41
0.25
  0
VERTEX
  5
104A
  8
SPAR
 10
144.01438328739289
 20
151.78325815451419
 30
0.0
  0
VERTEX
  5
104B
  8
SPAR
 10
126.014383287393
 20
152.78325815451419
 30
0.0
  0
VERTEX
  5
104C
  8
SPAR
 10
122.014383287393
 20
152.78325815451419
 30
0.0
  0
VERTEX
  5
104D
  8
SPAR
 10
104.014383287393
 20
151.78325815451419
 30
0.0
  0
SEQEND
  5
104E
  8
SPAR
  0
LINE
  5
6BF
  8
WING
 10
148.01438328739289
 20
153.2832581545141
 30
0.0
 11
148.01438328739289
 21
170.28325815451419
 31
0.0
1001
GENIUS_GENREC_14
1002
{
1000
PYDIR
1011
108.014383287393
1021
9.2233720396894542E+020
1031
0.0
1021
155.28325815451419
1031
0.0
1002
}
1002
{
1000
PXDIR
1011
148.01438328739289
1021
9.2233720396894542E+020
1031
0.0
1021
146.28325815451419
1031
0.0
1002
}
1002
{
1000
PORI
1011
108.014383287393
1021
9.2233720396894542E+020
1031
0.0
1021
146.28325815451419
1031
0.0
1002
}
1002
{
1000
PINS
1011
108.014383287393
1021
9.2233720396894542E+020
1031
0.0
1021
146.28325815451419
1031
0.0
1002
}
1002
{
1000
PINS2
1011
148.01438328739289
1021
9.2233720396894542E+020
1031
0.0
1021
155.28325815451419
1031
0.0
1002
}
1002
{
1000
C
1070
     1
1002
}
1001
GENIUS_GENODEF_13
1002
{
1000
HIER
1070
     0
1002
}
1002
{
1000
MANEDIT
1070
     0
1002
}
1002
{
1000
NOSEL
1070
     0
1002
}
1002
{
1000
BEHIND
1070
     0
1002
}
1002
{
1000
REACTOR
1002
}
1001
GENIUS_GENOBJ-N-REC_13
1002
{
1000
OWNER
1000
GEN
1002
}
  0
LINE
  5
6C0
  8
WING
 10
100.014383287393
 20
170.28325815451419
 30
0.0
 11
100.014383287393
 21
153.2832581545141
 31
0.0
1001
GENIUS_GENREC_14
1002
{
1000
PYDIR
1011
100.014383287393
1021
9.2233720396894542E+020
1031
0.0
1021
155.28325815451419
1031
0.0
1002
}
1002
{
1000
PXDIR
1011
140.01438328739289
1021
9.2233720396894542E+020
1031
0.0
1021
146.28325815451419
1031
0.0
1002
}
1002
{
1000
PORI
1011
100.014383287393
1021
9.2233720396894542E+020
1031
0.0
1021
146.28325815451419
1031
0.0
1002
}
1002
{
1000
PINS
1011
100.014383287393
1021
9.2233720396894542E+020
1031
0.0
1021
146.28325815451419
1031
0.0
1002
}
1002
{
1000
PINS2
1011
140.01438328739289
1021
9.2233720396894542E+020
1031
0.0
1021
155.28325815451419
1031
0.0
1002
}
1002
{
1000
C
1070
     1
1002
}
1001
GENIUS_GENODEF_13
1002
{
1000
HIER
1070
     0
1002
}
1002
{
1000
MANEDIT
1070
     0
1002
}
1002
{
1000
NOSEL
1070
     0
1002
}
1002
{
1000
BEHIND
1070
     0
1002
}
1002
{
1000
REACTOR
1002
}
1001
GENIUS_GENOBJ-N-REC_13
1002
{
1000
OWNER
1000
GEN
1002
}
  0
LINE
  5
6C1
  8
WING
 10
100.014383287393
 20
170.28325815451419
 30
0.0
 11
148.01438328739289
 21
170.28325815451419
 31
0.0
1001
GENIUS_GENREC_14
1002
{
1000
PYDIR
1011
104.014383287393
1021
9.2233720396894542E+020
1031
0.0
1021
179.28325815451419
1031
0.0
1002
}
1002
{
1000
PXDIR
1011
144.01438328739289
1021
9.2233720396894542E+020
1031
0.0
1021
170.28325815451419
1031
0.0
1002
}
1002
{
1000
PORI
1011
104.014383287393
1021
9.2233720396894542E+020
1031
0.0
1021
170.28325815451419
1031
0.0
1002
}
1002
{
1000
PINS
1011
104.014383287393
1021
9.2233720396894542E+020
1031
0.0
1021
170.28325815451419
1031
0.0
1002
}
1002
{
1000
PINS2
1011
144.01438328739289
1021
9.2233720396894542E+020
1031
0.0
1021
179.28325815451419
1031
0.0
1002
}
1002
{
1000
C
1070
     1
1002
}
1001
GENIUS_GENODEF_13
1002
{
1000
HIER
1070
     0
1002
}
1002
{
1000
MANEDIT
1070
     0
1002
}
1002
{
1000
NOSEL
1070
     0
1002
}
1002
{
1000
BEHIND
1070
     0
1002
}
1002
{
1000
REACTOR
1002
}
1001
GENIUS_GENOBJ-N-REC_13
1002
{
1000
OWNER
1000
GEN
1002
}
  0
LINE
  5
6C8
  8
WING
 10
104.01438328739241
 20
153.2832581545141
 30
0.0
 11
100.014383287393
 21
153.2832581545141
 31
0.0
1001
GENIUS_GENREC_14
1002
{
1000
PYDIR
1011
104.014383287393
1021
9.2233720396894542E+020
1031
0.0
1021
153.28325815451419
1031
0.0
1002
}
1002
{
1000
PXDIR
1011
144.01438328739289
1021
9.2233720396894542E+020
1031
0.0
1021
144.28325815451419
1031
0.0
1002
}
1002
{
1000
PORI
1011
104.014383287393
1021
9.2233720396894542E+020
1031
0.0
1021
144.28325815451419
1031
0.0
1002
}
1002
{
1000
PINS
1011
104.014383287393
1021
9.2233720396894542E+020
1031
0.0
1021
144.28325815451419
1031
0.0
1002
}
1002
{
1000
PINS2
1011
144.01438328739289
1021
9.2233720396894542E+020
1031
0.0
1021
153.28325815451419
1031
0.0
1002
}
1002
{
1000
C
1070
     1
1002
}
1001
GENIUS_GENODEF_13
1002
{
1000
HIER
1070
     0
1002
}
1002
{
1000
MANEDIT
1070
     0
1002
}
1002
{
1000
NOSEL
1070
     0
1002
}
1002
{
1000
BEHIND
1070
     0
1002
}
1002
{
1000
REACTOR
1002
}
1001
GENIUS_GENOBJ-N-REC_13
1002
{
1000
OWNER
1000
GEN
1002
}
  0
LINE
  5
6C9
  8
WING
 10
124.014383287393
 20
155.28325815451419
 30
0.0
 11
124.014383287393
 21
170.28325815451419
 31
0.0
  0
LINE
  5
6CB
  8
WING
 10
144.01438328739289
 20
148.28325815451419
 30
0.0
 11
144.01438328739289
 21
153.28325815451419
 31
0.0
1001
GENIUS_GENREC_14
1002
{
1000
PYDIR
1011
104.014383287393
1021
9.2233720396894542E+020
1031
0.0
1021
155.28325815451419
1031
0.0
1002
}
1002
{
1000
PXDIR
1011
144.01438328739289
1021
9.2233720396894542E+020
1031
0.0
1021
146.28325815451419
1031
0.0
1002
}
1002
{
1000
PORI
1011
104.014383287393
1021
9.2233720396894542E+020
1031
0.0
1021
146.28325815451419
1031
0.0
1002
}
1002
{
1000
PINS
1011
104.014383287393
1021
9.2233720396894542E+020
1031
0.0
1021
146.28325815451419
1031
0.0
1002
}
1002
{
1000
PINS2
1011
144.01438328739289
1021
9.2233720396894542E+020
1031
0.0
1021
155.28325815451419
1031
0.0
1002
}
1002
{
1000
C
1070
     1
1002
}
1001
GENIUS_GENODEF_13
1002
{
1000
HIER
1070
     0
1002
}
1002
{
1000
MANEDIT
1070
     0
1002
}
1002
{
1000
NOSEL
1070
     0
1002
}
1002
{
1000
BEHIND
1070
     0
1002
}
1002
{
1000
REACTOR
1002
}
1001
GENIUS_GENOBJ-N-REC_13
1002
{
1000
OWNER
1000
GEN
1002
}
  0
LINE
  5
6CC
  8
WING
  6
HIDDEN
 10
148.01438328739289
 20
146.28325815451419
 30
0.0
 11
148.01438328739289
 21
153.2832581545141
 31
0.0
1001
GENIUS_GENREC_14
1002
{
1000
PYDIR
1011
108.014383287393
1021
9.2233720396894542E+020
1031
0.0
1021
155.28325815451419
1031
0.0
1002
}
1002
{
1000
PXDIR
1011
148.01438328739289
1021
9.2233720396894542E+020
1031
0.0
1021
146.28325815451419
1031
0.0
1002
}
1002
{
1000
PORI
1011
108.014383287393
1021
9.2233720396894542E+020
1031
0.0
1021
146.28325815451419
1031
0.0
1002
}
1002
{
1000
PINS
1011
108.014383287393
1021
9.2233720396894542E+020
1031
0.0
1021
146.28325815451419
1031
0.0
1002
}
1002
{
1000
PINS2
1011
148.01438328739289
1021
9.2233720396894542E+020
1031
0.0
1021
155.28325815451419
1031
0.0
1002
}
1002
{
1000
C
1070
     1
1002
}
1001
GENIUS_GENODEF_13
1002
{
1000
HIER
1070
     0
1002
}
1002
{
1000
MANEDIT
1070
     0
1002
}
1002
{
1000
NOSEL
1070
     0
1002
}
1002
{
1000
BEHIND
1070
     0
1002
}
1002
{
1000
REACTOR
1002
}
1001
GENIUS_GENOBJ-N-REC_13
1002
{
1000
OWNER
1000
GEN
1002
}
  0
LINE
  5
6CD
  8
WING
  6
HIDDEN
 10
100.014383287393
 20
153.2832581545141
 30
0.0
 11
100.014383287393
 21
146.28325815451419
 31
0.0
1001
GENIUS_GENREC_14
1002
{
1000
PYDIR
1011
100.014383287393
1021
9.2233720396894542E+020
1031
0.0
1021
155.28325815451419
1031
0.0
1002
}
1002
{
1000
PXDIR
1011
140.01438328739289
1021
9.2233720396894542E+020
1031
0.0
1021
146.28325815451419
1031
0.0
1002
}
1002
{
1000
PORI
1011
100.014383287393
1021
9.2233720396894542E+020
1031
0.0
1021
146.28325815451419
1031
0.0
1002
}
1002
{
1000
PINS
1011
100.014383287393
1021
9.2233720396894542E+020
1031
0.0
1021
146.28325815451419
1031
0.0
1002
}
1002
{
1000
PINS2
1011
140.01438328739289
1021
9.2233720396894542E+020
1031
0.0
1021
155.28325815451419
1031
0.0
1002
}
1002
{
1000
C
1070
     1
1002
}
1001
GENIUS_GENODEF_13
1002
{
1000
HIER
1070
     0
1002
}
1002
{
1000
MANEDIT
1070
     0
1002
}
1002
{
1000
NOSEL
1070
     0
1002
}
1002
{
1000
BEHIND
1070
     0
1002
}
1002
{
1000
REACTOR
1002
}
1001
GENIUS_GENOBJ-N-REC_13
1002
{
1000
OWNER
1000
GEN
1002
}
  0
DIMENSION
  5
6CE
  8
DIM
  2
*D0
 10
144.01438328739289
 20
141.2909906020094
 30
0.0
 11
124.014383287393
 21
141.2909906020094
 31
0.0
 70
     0
 13
104.014383287393
 23
148.28325815451419
 33
0.0
 14
144.01438328739289
 24
148.28325815451419
 34
0.0
  0
DIMENSION
  5
6FB
  8
DIM
  2
*D1
 10
148.01438328739289
 20
139.7216287405962
 30
0.0
 11
124.014383287393
 21
139.7216287405962
 31
0.0
 70
     0
 13
100.014383287393
 23
146.28325815451419
 33
0.0
 14
148.01438328739289
 24
146.28325815451419
 34
0.0
  0
DIMENSION
  5
709
  8
DIM
  2
*D2
 10
97.062790292274514
 20
148.28325815451419
 30
0.0
 11
97.062790292274485
 21
147.28325815451419
 31
0.0
 70
   128
 13
100.014383287393
 23
146.28325815451419
 33
0.0
 14
104.014383287393
 24
148.28325815451419
 34
0.0
 50
90.0
  0
DIMENSION
  5
721
  8
DIM
  2
*D3
 10
95.668438882462851
 20
153.2832581545141
 30
0.0
 11
95.668438882462837
 21
149.78325815451419
 31
0.0
 70
   128
 13
100.014383287393
 23
146.28325815451419
 33
0.0
 14
100.014383287393
 24
153.2832581545141
 34
0.0
 50
90.0
  0
DIMENSION
  5
739
  8
DIM
  2
*D4
 10
94.516313678657184
 20
155.28325815451419
 30
0.0
 11
94.51631367865717
 21
150.78325815451419
 31
0.0
 70
   128
 13
100.014383287393
 23
146.28325815451419
 33
0.0
 14
124.014383287393
 24
155.28325815451419
 34
0.0
 50
90.0
  0
DIMENSION
  5
783
  8
DIM
  2
*D5
 10
93.228644264021
 20
170.28325815451419
 30
0.0
 11
93.228644264020957
 21
158.28325815451419
 31
0.0
 70
     0
 13
100.014383287393
 23
146.28325815451419
 33
0.0
 14
100.014383287393
 24
170.28325815451419
 34
0.0
 50
90.0
  0
DIMENSION
  5
7EC
  8
DIM
  2
*D6
 10
150.2050809794502
 20
151.78325815451419
 30
0.0
 11
150.2050809794502
 21
149.03325815451419
 31
0.0
 70
   128
 13
148.01438328739289
 23
146.28325815451419
 33
0.0
 14
144.01438328739289
 24
151.78325815451419
 34
0.0
 50
90.0
  0
DIMENSION
  5
822
  8
DIM
  2
*D7
 10
124.014383287393
 20
152.78325815451419
 30
0.0
 11
124.0143832873929
 21
149.53325815451419
 31
0.0
 70
   128
 13
124.014383287393
 23
146.28325815451419
 33
0.0
 14
124.014383287393
 24
152.78325815451419
 34
0.0
 50
90.0
1001
ACAD
1000
DSTYLE
1002
{
1070
    75
1070
     1
1070
    76
1070
     1
1070
   282
1070
     0
1070
   281
1070
     0
1002
}
  0
DIMENSION
  5
84E
  8
DIM
  2
*D8
 10
126.014383287393
 20
156.96506585039239
 30
0.0
 11
124.713851210252
 21
156.96506585039239
 31
0.0
 70
   128
 13
122.014383287393
 23
152.78325815451419
 33
0.0
 14
126.014383287393
 24
152.78325815451419
 34
0.0
  0
DIMENSION
  5
85C
  8
DIM
  2
*D9
 10
148.01438328739289
 20
172.18502186769661
 30
0.0
 11
136.014383287393
 21
172.18502186769661
 31
0.0
 70
     0
 13
124.014383287393
 23
170.28325815451419
 33
0.0
 14
148.01438328739289
 24
170.28325815451419
 34
0.0
  0
LINE
  5
8C3
  8
AILERONS
 10
144.01438328739289
 20
148.78325815451419
 30
0.0
 11
144.01438328739289
 21
147.28325815451419
 31
0.0
  0
LINE
  5
8C4
  8
AILERONS
 10
124.014383287393
 20
146.78325815451419
 30
0.0
 11
144.01438328739289
 21
148.78325815451419
 31
0.0
1001
GENIUS_GENREC_14
1002
{
1000
PYDIR
1011
144.01438328739289
1021
9.2233720396894542E+020
1031
0.0
1021
148.78325815451419
1031
0.0
1002
}
1002
{
1000
PXDIR
1011
104.014383287393
1021
9.2233720396894542E+020
1031
0.0
1021
139.78325815451419
1031
0.0
1002
}
1002
{
1000
PORI
1011
144.01438328739289
1021
9.2233720396894542E+020
1031
0.0
1021
139.78325815451419
1031
0.0
1002
}
1002
{
1000
PINS
1011
144.01438328739289
1021
9.2233720396894542E+020
1031
0.0
1021
139.78325815451419
1031
0.0
1002
}
1002
{
1000
PINS2
1011
124.014383287393
1021
9.2233720396894542E+020
1031
0.0
1021
146.78325815451419
1031
0.0
1002
}
1002
{
1000
C
1070
     1
1002
}
1001
GENIUS_GENODEF_13
1002
{
1000
HIER
1070
     0
1002
}
1002
{
1000
MANEDIT
1070
     0
1002
}
1002
{
1000
NOSEL
1070
     0
1002
}
1002
{
1000
BEHIND
1070
     0
1002
}
1002
{
1000
REACTOR
1002
}
1001
GENIUS_GENOBJ-N-REC_13
1002
{
1000
OWNER
1000
GEN
1002
}
  0
LINE
  5
8C5
  8
AILERONS
 10
124.014383287393
 20
145.28325815451419
 30
0.0
 11
144.01438328739289
 21
147.28325815451419
 31
0.0
1001
GENIUS_GENREC_14
1002
{
1000
PYDIR
1011
144.01438328739289
1021
9.2233720396894542E+020
1031
0.0
1021
147.28325815451419
1031
0.0
1002
}
1002
{
1000
PXDIR
1011
104.014383287393
1021
9.2233720396894542E+020
1031
0.0
1021
138.28325815451419
1031
0.0
1002
}
1002
{
1000
PORI
1011
144.01438328739289
1021
9.2233720396894542E+020
1031
0.0
1021
138.28325815451419
1031
0.0
1002
}
1002
{
1000
PINS
1011
144.01438328739289
1021
9.2233720396894542E+020
1031
0.0
1021
138.28325815451419
1031
0.0
1002
}
1002
{
1000
PINS2
1011
124.014383287393
1021
9.2233720396894542E+020
1031
0.0
1021
145.28325815451419
1031
0.0
1002
}
1002
{
1000
C
1070
     1
1002
}
1001
GENIUS_GENODEF_13
1002
{
1000
HIER
1070
     0
1002
}
1002
{
1000
MANEDIT
1070
     0
1002
}
1002
{
1000
NOSEL
1070
     0
1002
}
1002
{
1000
BEHIND
1070
     0
1002
}
1002
{
1000
REACTOR
1002
}
1001
GENIUS_GENOBJ-N-REC_13
1002
{
1000
OWNER
1000
GEN
1002
}
  0
LINE
  5
8C6
  8
AILERONS
 10
124.014383287393
 20
145.28325815451419
 30
0.0
 11
104.014383287393
 21
147.28325815451419
 31
0.0
1001
GENIUS_GENREC_14
1002
{
1000
PYDIR
1011
104.014383287393
1021
9.2233720396894542E+020
1031
0.0
1021
147.28325815451419
1031
0.0
1002
}
1002
{
1000
PXDIR
1011
144.01438328739289
1021
9.2233720396894542E+020
1031
0.0
1021
138.28325815451419
1031
0.0
1002
}
1002
{
1000
PORI
1011
104.014383287393
1021
9.2233720396894542E+020
1031
0.0
1021
138.28325815451419
1031
0.0
1002
}
1002
{
1000
PINS
1011
104.014383287393
1021
9.2233720396894542E+020
1031
0.0
1021
138.28325815451419
1031
0.0
1002
}
1002
{
1000
PINS2
1011
124.014383287393
1021
9.2233720396894542E+020
1031
0.0
1021
145.28325815451419
1031
0.0
1002
}
1002
{
1000
C
1070
     1
1002
}
1001
GENIUS_GENODEF_13
1002
{
1000
HIER
1070
     0
1002
}
1002
{
1000
MANEDIT
1070
     0
1002
}
1002
{
1000
NOSEL
1070
     0
1002
}
1002
{
1000
BEHIND
1070
     0
1002
}
1002
{
1000
REACTOR
1002
}
1001
GENIUS_GENOBJ-N-REC_13
1002
{
1000
OWNER
1000
GEN
1002
}
  0
LINE
  5
8C7
  8
AILERONS
 10
124.014383287393
 20
146.78325815451419
 30
0.0
 11
104.014383287393
 21
148.78325815451419
 31
0.0
1001
GENIUS_GENREC_14
1002
{
1000
PYDIR
1011
104.014383287393
1021
9.2233720396894542E+020
1031
0.0
1021
148.78325815451419
1031
0.0
1002
}
1002
{
1000
PXDIR
1011
144.01438328739289
1021
9.2233720396894542E+020
1031
0.0
1021
139.78325815451419
1031
0.0
1002
}
1002
{
1000
PORI
1011
104.014383287393
1021
9.2233720396894542E+020
1031
0.0
1021
139.78325815451419
1031
0.0
1002
}
1002
{
1000
PINS
1011
104.014383287393
1021
9.2233720396894542E+020
1031
0.0
1021
139.78325815451419
1031
0.0
1002
}
1002
{
1000
PINS2
1011
124.014383287393
1021
9.2233720396894542E+020
1031
0.0
1021
146.78325815451419
1031
0.0
1002
}
1002
{
1000
C
1070
     1
1002
}
  0
DIMENSION
  5
8C8
  8
DIM
  2
*D10
 10
146.38425501349749
 20
147.28325815451419
 30
0.0
 11
146.38425501349741
 21
144.97135339260939
 31
0.0
 70
     0
 13
144.01438328739289
 23
148.78325815451419
 33
0.0
 14
144.01438328739289
 24
147.28325815451419
 34
0.0
 50
90.0
  0
DIMENSION
  5
8D6
  8
DIM
  2
*D11
 10
102.44042132039451
 20
147.28325815451419
 30
0.0
 11
102.44042132039451
 21
145.17373434499041
 31
0.0
 70
     0
 13
104.014383287393
 23
148.28325815451419
 33
0.0
 14
104.014383287393
 24
147.28325815451419
 34
0.0
 50
90.0
  0
LINE
  5
8E4
  8
AILERONS
 10
104.014383287393
 20
148.78325815451419
 30
0.0
 11
104.014383287393
 21
147.28325815451419
 31
0.0
  0
LINE
  5
8E6
  8
AILERONS
 10
124.014383287393
 20
146.78325815451419
 30
0.0
 11
124.014383287393
 21
145.28325815451419
 31
0.0
  0
LINE
  5
8E7
  8
AILERONS
 10
124.014383287393
 20
128.41022085051799
 30
0.0
 11
120.03423452655301
 21
128.80823572660199
 31
0.0
1001
GENIUS_GENREC_14
1002
{
1000
PYDIR
1011
104.014383287393
1021
9.2233720396894542E+020
1031
0.0
1021
130.41022085051799
1031
0.0
1002
}
1002
{
1000
PXDIR
1011
144.01438328739289
1021
9.2233720396894542E+020
1031
0.0
1021
121.410220850518
1031
0.0
1002
}
1002
{
1000
PORI
1011
104.014383287393
1021
9.2233720396894542E+020
1031
0.0
1021
121.410220850518
1031
0.0
1002
}
1002
{
1000
PINS
1011
104.014383287393
1021
9.2233720396894542E+020
1031
0.0
1021
121.410220850518
1031
0.0
1002
}
1002
{
1000
PINS2
1011
124.014383287393
1021
9.2233720396894542E+020
1031
0.0
1021
128.41022085051799
1031
0.0
1002
}
1002
{
1000
C
1070
     1
1002
}
1001
GENIUS_GENODEF_13
1002
{
1000
HIER
1070
     0
1002
}
1002
{
1000
MANEDIT
1070
     0
1002
}
1002
{
1000
NOSEL
1070
     0
1002
}
1002
{
1000
BEHIND
1070
     0
1002
}
1002
{
1000
REACTOR
1002
}
1001
GENIUS_GENOBJ-N-REC_13
1002
{
1000
OWNER
1000
GEN
1002
}
  0
LINE
  5
8E8
  8
AILERONS
 10
104.014383287393
 20
131.91022085051799
 30
0.0
 11
104.014383287393
 21
130.41022085051799
 31
0.0
  0
LINE
  5
8E9
  8
AILERONS
 10
124.014383287393
 20
128.41022085051799
 30
0.0
 11
127.9945320482329
 21
128.80823572660199
 31
0.0
1001
GENIUS_GENREC_14
1002
{
1000
PYDIR
1011
144.01438328739289
1021
9.2233720396894542E+020
1031
0.0
1021
130.41022085051799
1031
0.0
1002
}
1002
{
1000
PXDIR
1011
104.014383287393
1021
9.2233720396894542E+020
1031
0.0
1021
121.410220850518
1031
0.0
1002
}
1002
{
1000
PORI
1011
144.01438328739289
1021
9.2233720396894542E+020
1031
0.0
1021
121.410220850518
1031
0.0
1002
}
1002
{
1000
PINS
1011
144.01438328739289
1021
9.2233720396894542E+020
1031
0.0
1021
121.410220850518
1031
0.0
1002
}
1002
{
1000
PINS2
1011
124.014383287393
1021
9.2233720396894542E+020
1031
0.0
1021
128.41022085051799
1031
0.0
1002
}
1002
{
1000
C
1070
     1
1002
}
1001
GENIUS_GENODEF_13
1002
{
1000
HIER
1070
     0
1002
}
1002
{
1000
MANEDIT
1070
     0
1002
}
1002
{
1000
NOSEL
1070
     0
1002
}
1002
{
1000
BEHIND
1070
     0
1002
}
1002
{
1000
REACTOR
1002
}
1001
GENIUS_GENOBJ-N-REC_13
1002
{
1000
OWNER
1000
GEN
1002
}
  0
LINE
  5
8EA
  8
AILERONS
 10
144.01438328739289
 20
131.91022085051799
 30
0.0
 11
144.01438328739289
 21
130.41022085051799
 31
0.0
  0
LINE
  5
8EB
  8
AILERONS
 10
124.014383287393
 20
129.91022085051799
 30
0.0
 11
144.01438328739289
 21
131.91022085051799
 31
0.0
1001
GENIUS_GENREC_14
1002
{
1000
PYDIR
1011
144.01438328739289
1021
9.2233720396894542E+020
1031
0.0
1021
131.91022085051799
1031
0.0
1002
}
1002
{
1000
PXDIR
1011
104.014383287393
1021
9.2233720396894542E+020
1031
0.0
1021
122.910220850518
1031
0.0
1002
}
1002
{
1000
PORI
1011
144.01438328739289
1021
9.2233720396894542E+020
1031
0.0
1021
122.910220850518
1031
0.0
1002
}
1002
{
1000
PINS
1011
144.01438328739289
1021
9.2233720396894542E+020
1031
0.0
1021
122.910220850518
1031
0.0
1002
}
1002
{
1000
PINS2
1011
124.014383287393
1021
9.2233720396894542E+020
1031
0.0
1021
129.91022085051799
1031
0.0
1002
}
1002
{
1000
C
1070
     1
1002
}
1001
GENIUS_GENODEF_13
1002
{
1000
HIER
1070
     0
1002
}
1002
{
1000
MANEDIT
1070
     0
1002
}
1002
{
1000
NOSEL
1070
     0
1002
}
1002
{
1000
BEHIND
1070
     0
1002
}
1002
{
1000
REACTOR
1002
}
1001
GENIUS_GENOBJ-N-REC_13
1002
{
1000
OWNER
1000
GEN
1002
}
  0
LINE
  5
8EC
  8
AILERONS
 10
124.014383287393
 20
129.91022085051799
 30
0.0
 11
104.014383287393
 21
131.91022085051799
 31
0.0
1001
GENIUS_GENREC_14
1002
{
1000
PYDIR
1011
104.014383287393
1021
9.2233720396894542E+020
1031
0.0
1021
131.91022085051799
1031
0.0
1002
}
1002
{
1000
PXDIR
1011
144.01438328739289
1021
9.2233720396894542E+020
1031
0.0
1021
122.910220850518
1031
0.0
1002
}
1002
{
1000
PORI
1011
104.014383287393
1021
9.2233720396894542E+020
1031
0.0
1021
122.910220850518
1031
0.0
1002
}
1002
{
1000
PINS
1011
104.014383287393
1021
9.2233720396894542E+020
1031
0.0
1021
122.910220850518
1031
0.0
1002
}
1002
{
1000
PINS2
1011
124.014383287393
1021
9.2233720396894542E+020
1031
0.0
1021
129.91022085051799
1031
0.0
1002
}
1002
{
1000
C
1070
     1
1002
}
  0
LINE
  5
8ED
  8
AILERONS
 10
124.014383287393
 20
129.91022085051799
 30
0.0
 11
124.014383287393
 21
128.41022085051799
 31
0.0
  0
DIMENSION
  5
8EE
  8
DIM
  2
*D12
 10
103.54929644442809
 20
127.2593524208697
 30
0.0
 11
113.6235538701707
 21
126.2519266782955
 31
0.0
 70
     1
 13
124.014383287393
 23
128.41022085051799
 33
0.0
 14
103.8658684359078
 24
130.4250723356665
 34
0.0
  0
LINE
  5
90A
  8
AILERONS
  6
HIDDEN
 10
103.8658684359078
 20
130.4250723356665
 30
0.0
 11
104.014383287393
 21
131.91022085051799
 31
0.0
  0
LINE
  5
915
  8
AILERONS
  6
HIDDEN
 10
103.9401258616504
 20
130.41764659309229
 30
0.0
 11
103.8658684359078
 21
130.4250723356665
 31
0.0
  0
DIMENSION
  5
916
  8
DIM
  2
*D13
 10
103.04689202841701
 20
132.00696997641569
 30
0.0
 11
103.2769351502489
 21
134.30740119473441
 31
0.0
 70
     1
 13
103.8658684359078
 23
130.4250723356665
 33
0.0
 14
104.014383287393
 24
131.91022085051799
 34
0.0
  0
LINE
  5
93C
  8
AILERONS
  6
HIDDEN
 10
120.1514096240079
 20
129.9799867011516
 30
0.0
 11
103.9830435333628
 21
131.596823310216
 31
0.0
1001
GENIUS_GENREC_14
1002
{
1000
PYDIR
1011
104.014383287393
1021
9.2233720396894542E+020
1031
0.0
1021
131.91022085051799
1031
0.0
1002
}
1002
{
1000
PXDIR
1011
144.01438328739289
1021
9.2233720396894542E+020
1031
0.0
1021
122.910220850518
1031
0.0
1002
}
1002
{
1000
PORI
1011
104.014383287393
1021
9.2233720396894542E+020
1031
0.0
1021
122.910220850518
1031
0.0
1002
}
1002
{
1000
PINS
1011
104.014383287393
1021
9.2233720396894542E+020
1031
0.0
1021
122.910220850518
1031
0.0
1002
}
1002
{
1000
PINS2
1011
124.014383287393
1021
9.2233720396894542E+020
1031
0.0
1021
129.91022085051799
1031
0.0
1002
}
1002
{
1000
C
1070
     1
1002
}
  0
LINE
  5
940
  8
AILERONS
  6
HIDDEN
 10
120.0113600982166
 20
129.83572589587811
 30
0.0
 11
103.9673736563476
 21
131.440124540065
 31
0.0
1001
GENIUS_GENREC_14
1002
{
1000
PYDIR
1011
104.014383287393
1021
9.2233720396894542E+020
1031
0.0
1021
131.91022085051799
1031
0.0
1002
}
1002
{
1000
PXDIR
1011
144.01438328739289
1021
9.2233720396894542E+020
1031
0.0
1021
122.910220850518
1031
0.0
1002
}
1002
{
1000
PORI
1011
104.014383287393
1021
9.2233720396894542E+020
1031
0.0
1021
122.910220850518
1031
0.0
1002
}
1002
{
1000
PINS
1011
104.014383287393
1021
9.2233720396894542E+020
1031
0.0
1021
122.910220850518
1031
0.0
1002
}
1002
{
1000
PINS2
1011
124.014383287393
1021
9.2233720396894542E+020
1031
0.0
1021
129.91022085051799
1031
0.0
1002
}
1002
{
1000
C
1070
     1
1002
}
  0
LINE
  5
941
  8
AILERONS
  6
HIDDEN
 10
127.87735695077799
 20
129.97998670115149
 30
0.0
 11
144.01438328739289
 21
131.59368933481301
 31
0.0
1001
GENIUS_GENREC_14
1002
{
1000
PYDIR
1011
144.01438328739289
1021
9.2233720396894542E+020
1031
0.0
1021
131.91022085051799
1031
0.0
1002
}
1002
{
1000
PXDIR
1011
104.014383287393
1021
9.2233720396894542E+020
1031
0.0
1021
122.910220850518
1031
0.0
1002
}
1002
{
1000
PORI
1011
144.01438328739289
1021
9.2233720396894542E+020
1031
0.0
1021
122.910220850518
1031
0.0
1002
}
1002
{
1000
PINS
1011
144.01438328739289
1021
9.2233720396894542E+020
1031
0.0
1021
122.910220850518
1031
0.0
1002
}
1002
{
1000
PINS2
1011
124.014383287393
1021
9.2233720396894542E+020
1031
0.0
1021
129.91022085051799
1031
0.0
1002
}
1002
{
1000
C
1070
     1
1002
}
  0
LINE
  5
942
  8
AILERONS
  6
HIDDEN
 10
128.01740647656931
 20
129.8357258958782
 30
0.0
 11
144.01438328739289
 21
131.43542357696049
 31
0.0
1001
GENIUS_GENREC_14
1002
{
1000
PYDIR
1011
144.01438328739289
1021
9.2233720396894542E+020
1031
0.0
1021
131.91022085051799
1031
0.0
1002
}
1002
{
1000
PXDIR
1011
104.014383287393
1021
9.2233720396894542E+020
1031
0.0
1021
122.910220850518
1031
0.0
1002
}
1002
{
1000
PORI
1011
144.01438328739289
1021
9.2233720396894542E+020
1031
0.0
1021
122.910220850518
1031
0.0
1002
}
1002
{
1000
PINS
1011
144.01438328739289
1021
9.2233720396894542E+020
1031
0.0
1021
122.910220850518
1031
0.0
1002
}
1002
{
1000
PINS2
1011
124.014383287393
1021
9.2233720396894542E+020
1031
0.0
1021
129.91022085051799
1031
0.0
1002
}
1002
{
1000
C
1070
     1
1002
}
  0
LINE
  5
957
  8
AILERONS
 10
120.03423452655301
 20
128.80823572660199
 30
0.0
 11
120.1514096240079
 21
129.9799867011516
 31
0.0
  0
LINE
  5
958
  8
AILERONS
 10
127.9945320482329
 20
128.80823572660199
 30
0.0
 11
127.87735695077799
 21
129.97998670115149
 31
0.0
  0
LINE
  5
960
  8
AILERONS
 10
119.9098548777767
 20
128.82067369147961
 30
0.0
 11
120.0270299752317
 21
129.99242466602919
 31
0.0
  0
LINE
  5
964
  8
AILERONS
 10
128.1189116970092
 20
128.82067369147961
 30
0.0
 11
128.00173659955419
 21
129.99242466602919
 31
0.0
  0
LINE
  5
965
  8
AILERONS
 10
128.1189116970092
 20
128.82067369147961
 30
0.0
 11
144.01438328739289
 21
130.41022085051799
 31
0.0
1001
GENIUS_GENREC_14
1002
{
1000
PYDIR
1011
144.01438328739289
1021
9.2233720396894542E+020
1031
0.0
1021
130.41022085051799
1031
0.0
1002
}
1002
{
1000
PXDIR
1011
104.014383287393
1021
9.2233720396894542E+020
1031
0.0
1021
121.410220850518
1031
0.0
1002
}
1002
{
1000
PORI
1011
144.01438328739289
1021
9.2233720396894542E+020
1031
0.0
1021
121.410220850518
1031
0.0
1002
}
1002
{
1000
PINS
1011
144.01438328739289
1021
9.2233720396894542E+020
1031
0.0
1021
121.410220850518
1031
0.0
1002
}
1002
{
1000
PINS2
1011
124.014383287393
1021
9.2233720396894542E+020
1031
0.0
1021
128.41022085051799
1031
0.0
1002
}
1002
{
1000
C
1070
     1
1002
}
1001
GENIUS_GENODEF_13
1002
{
1000
HIER
1070
     0
1002
}
1002
{
1000
MANEDIT
1070
     0
1002
}
1002
{
1000
NOSEL
1070
     0
1002
}
1002
{
1000
BEHIND
1070
     0
1002
}
1002
{
1000
REACTOR
1002
}
1001
GENIUS_GENOBJ-N-REC_13
1002
{
1000
OWNER
1000
GEN
1002
}
  0
LINE
  5
966
  8
AILERONS
 10
119.9098548777767
 20
128.82067369147961
 30
0.0
 11
104.014383287393
 21
130.41022085051799
 31
0.0
1001
GENIUS_GENREC_14
1002
{
1000
PYDIR
1011
104.014383287393
1021
9.2233720396894542E+020
1031
0.0
1021
130.41022085051799
1031
0.0
1002
}
1002
{
1000
PXDIR
1011
144.01438328739289
1021
9.2233720396894542E+020
1031
0.0
1021
121.410220850518
1031
0.0
1002
}
1002
{
1000
PORI
1011
104.014383287393
1021
9.2233720396894542E+020
1031
0.0
1021
121.410220850518
1031
0.0
1002
}
1002
{
1000
PINS
1011
104.014383287393
1021
9.2233720396894542E+020
1031
0.0
1021
121.410220850518
1031
0.0
1002
}
1002
{
1000
PINS2
1011
124.014383287393
1021
9.2233720396894542E+020
1031
0.0
1021
128.41022085051799
1031
0.0
1002
}
1002
{
1000
C
1070
     1
1002
}
1001
GENIUS_GENODEF_13
1002
{
1000
HIER
1070
     0
1002
}
1002
{
1000
MANEDIT
1070
     0
1002
}
1002
{
1000
NOSEL
1070
     0
1002
}
1002
{
1000
BEHIND
1070
     0
1002
}
1002
{
1000
REACTOR
1002
}
1001
GENIUS_GENOBJ-N-REC_13
1002
{
1000
OWNER
1000
GEN
1002
}
  0
DIMENSION
  5
967
  8
DIM
  2
*D14
 10
123.87827450529529
 20
127.0491330295408
 30
0.0
 11
121.8882001248753
 21
127.2481404675828
 31
0.0
 70
     1
 13
120.03423452655301
 23
128.80823572660199
 33
0.0
 14
124.014383287393
 24
128.41022085051799
 34
0.0
  0
LINE
  5
97A
  8
RUDDER
 10
114.0700049096196
 20
114.9392443200319
 30
0.0
 11
114.0700049096196
 21
113.189244320032
 31
0.0
  0
LINE
  5
97B
  8
RUDDER
 10
116.5804761138081
 20
120.689244320032
 30
0.0
 11
117.5700049096196
 21
113.6840629728817
 31
0.0
  0
LINE
  5
97C
  8
RUDDER
 10
114.0700049096196
 20
120.939244320032
 30
0.0
 11
116.5804761138081
 21
120.689244320032
 31
0.0
  0
LINE
  5
97D
  8
RUDDER
 10
114.0700049096196
 20
120.939244320032
 30
0.0
 11
113.0700049096196
 21
116.439244320032
 31
0.0
  0
LINE
  5
97E
  8
RUDDER
 10
108.5700049096196
 20
114.9392443200319
 30
0.0
 11
114.0700049096196
 21
114.9392443200319
 31
0.0
  0
LINE
  5
97F
  8
RUDDER
 10
113.0700049096196
 20
116.439244320032
 30
0.0
 11
108.5700049096196
 21
114.9392443200319
 31
0.0
  0
LINE
  5
980
  8
RUDDER
 10
114.0700049096196
 20
113.189244320032
 30
0.0
 11
117.5700049096196
 21
113.6840629728817
 31
0.0
  0
SOLID
  5
98E
  8
DIM
 62
     2
 10
114.0700049096196
 20
113.189244320032
 30
0.0
 11
117.5700049096196
 21
113.6840629728817
 31
0.0
 12
114.0700049096196
 22
112.1793000702387
 32
0.0
 13
117.70998962460359
 23
112.69390930825639
 33
0.0
  0
DIMENSION
  5
98F
  8
DIM
  2
*D15
 10
106.0488023209728
 20
116.439244320032
 30
0.0
 11
106.0488023209728
 21
115.689244320032
 31
0.0
 70
   128
 13
108.5700049096196
 23
114.9392443200319
 33
0.0
 14
113.0700049096196
 24
116.439244320032
 34
0.0
 50
90.0
  0
DIMENSION
  5
99D
  8
DIM
  2
*D16
 10
104.7812938267755
 20
113.189244320032
 30
0.0
 11
104.7812938267755
 21
114.064244320032
 31
0.0
 70
   128
 13
108.5700049096196
 23
114.9392443200319
 33
0.0
 14
114.0700049096196
 24
113.189244320032
 34
0.0
 50
90.0
  0
DIMENSION
  5
9AB
  8
DIM
  2
*D17
 10
103.65828114502951
 20
120.939244320032
 30
0.0
 11
103.65828114502951
 21
117.0642443200319
 31
0.0
 70
   128
 13
114.0700049096196
 23
113.189244320032
 33
0.0
 14
114.0700049096196
 24
120.939244320032
 34
0.0
 50
90.0
  0
DIMENSION
  5
9D9
  8
DIM
  2
*D19
 10
120.75073416307789
 20
120.689244320032
 30
0.0
 11
120.75073416307789
 21
123.0963871771748
 31
0.0
 70
   128
 13
114.0700049096196
 23
120.939244320032
 33
0.0
 14
116.5804761138081
 24
120.689244320032
 34
0.0
 50
90.0
  0
DIMENSION
  5
9E7
  8
DIM
  2
*D20
 10
120.75073416307789
 20
113.6840629728817
 30
0.0
 11
120.75073416307789
 21
117.1866536464568
 31
0.0
 70
     0
 13
116.5804761138081
 23
120.689244320032
 33
0.0
 14
117.5700049096196
 24
113.6840629728817
 34
0.0
 50
90.0
  0
DIMENSION
  5
9F5
  8
DIM
  2
*D21
 10
117.5700049096196
 20
110.5194380135238
 30
0.0
 11
115.8200049096196
 21
110.5194380135238
 31
0.0
 70
   128
 13
114.0700049096196
 23
112.1793000702387
 33
0.0
 14
117.5700049096196
 24
113.6840629728817
 34
0.0
  0
DIMENSION
  5
A03
  8
DIM
  2
*D22
 10
116.5804761138081
 20
122.39791860656931
 30
0.0
 11
115.3252405117138
 21
122.39791860656931
 31
0.0
 70
   128
 13
114.0700049096196
 23
120.939244320032
 33
0.0
 14
116.5804761138081
 24
120.689244320032
 34
0.0
  0
DIMENSION
  5
B64
  8
DIM
  2
*D23
 10
108.5700049096196
 20
110.5194380135238
 30
0.0
 11
111.3200049096196
 21
110.5194380135238
 31
0.0
 70
     0
 13
114.0700049096196
 23
111.9293000702387
 33
0.0
 14
108.5700049096196
 24
114.9392443200319
 34
0.0
  0
DIMENSION
  5
B90
  8
DIM
  2
*D24
 10
113.0700049096196
 20
117.3952844241073
 30
0.0
 11
110.8200049096196
 21
117.3952844241073
 31
0.0
 70
     0
 13
108.5700049096196
 23
114.9392443200319
 33
0.0
 14
113.0700049096196
 24
116.439244320032
 34
0.0
  0
LINE
  5
C49
  8
ELEVATOR
 10
142.70847440194819
 20
115.2649343590443
 30
0.0
 11
143.20847440194819
 21
118.2649343590443
 31
0.0
1001
GENIUS_GENREC_14
1002
{
1000
PYDIR
1011
129.20847440194819
1021
9.2233720396894542E+020
1031
0.0
1021
119.2649343590443
1031
0.0
1002
}
1002
{
1000
PXDIR
1011
142.70847440194819
1021
9.2233720396894542E+020
1031
0.0
1021
115.2649343590443
1031
0.0
1002
}
1002
{
1000
PORI
1011
129.20847440194819
1021
9.2233720396894542E+020
1031
0.0
1021
114.2649343590443
1031
0.0
1002
}
1002
{
1000
PINS
1011
129.20847440194819
1021
9.2233720396894542E+020
1031
0.0
1021
114.2649343590443
1031
0.0
1002
}
1002
{
1000
PINS2
1011
143.20847440194819
1021
9.2233720396894542E+020
1031
0.0
1021
118.2649343590443
1031
0.0
1002
}
1002
{
1000
C
1070
     1
1002
}
1001
GENIUS_GENODEF_13
1002
{
1000
HIER
1070
     0
1002
}
1002
{
1000
MANEDIT
1070
     0
1002
}
1002
{
1000
NOSEL
1070
     0
1002
}
1002
{
1000
BEHIND
1070
     0
1002
}
1002
{
1000
REACTOR
1002
}
1001
GENIUS_GENOBJ-N-REC_13
1002
{
1000
OWNER
1000
GEN
1002
}
  0
LINE
  5
C4A
  8
ELEVATOR
 10
136.70847440194819
 20
119.2649343590443
 30
0.0
 11
135.70847440194819
 21
119.2649343590443
 31
0.0
1001
GENIUS_GENREC_14
1002
{
1000
PYDIR
1011
129.20847440194819
1021
9.2233720396894542E+020
1031
0.0
1021
119.2649343590443
1031
0.0
1002
}
1002
{
1000
PXDIR
1011
143.20847440194819
1021
9.2233720396894542E+020
1031
0.0
1021
114.2649343590443
1031
0.0
1002
}
1002
{
1000
PORI
1011
129.20847440194819
1021
9.2233720396894542E+020
1031
0.0
1021
114.2649343590443
1031
0.0
1002
}
1002
{
1000
PINS
1011
129.20847440194819
1021
9.2233720396894542E+020
1031
0.0
1021
114.2649343590443
1031
0.0
1002
}
1002
{
1000
PINS2
1011
143.20847440194819
1021
9.2233720396894542E+020
1031
0.0
1021
119.2649343590443
1031
0.0
1002
}
1002
{
1000
C
1070
     1
1002
}
1001
GENIUS_GENODEF_13
1002
{
1000
HIER
1070
     0
1002
}
1002
{
1000
MANEDIT
1070
     0
1002
}
1002
{
1000
NOSEL
1070
     0
1002
}
1002
{
1000
BEHIND
1070
     0
1002
}
1002
{
1000
REACTOR
1002
}
1001
GENIUS_GENOBJ-N-REC_13
1002
{
1000
OWNER
1000
GEN
1002
}
  0
LINE
  5
C4C
  8
ELEVATOR
  6
HIDDEN
 10
142.87514106861491
 20
116.2649343590443
 30
0.0
 11
136.58347440194819
 21
116.2649343590443
 31
0.0
1001
GENIUS_GENREC_14
1002
{
1000
PYDIR
1011
129.20847440194819
1021
9.2233720396894542E+020
1031
0.0
1021
116.2649343590443
1031
0.0
1002
}
1002
{
1000
PXDIR
1011
143.20847440194819
1021
9.2233720396894542E+020
1031
0.0
1021
111.2649343590443
1031
0.0
1002
}
1002
{
1000
PORI
1011
129.20847440194819
1021
9.2233720396894542E+020
1031
0.0
1021
111.2649343590443
1031
0.0
1002
}
1002
{
1000
PINS
1011
129.20847440194819
1021
9.2233720396894542E+020
1031
0.0
1021
111.2649343590443
1031
0.0
1002
}
1002
{
1000
PINS2
1011
143.20847440194819
1021
9.2233720396894542E+020
1031
0.0
1021
116.2649343590443
1031
0.0
1002
}
1002
{
1000
C
1070
     1
1002
}
1001
GENIUS_GENODEF_13
1002
{
1000
HIER
1070
     0
1002
}
1002
{
1000
MANEDIT
1070
     0
1002
}
1002
{
1000
NOSEL
1070
     0
1002
}
1002
{
1000
BEHIND
1070
     0
1002
}
1002
{
1000
REACTOR
1002
}
1001
GENIUS_GENOBJ-N-REC_13
1002
{
1000
OWNER
1000
GEN
1002
}
  0
LINE
  5
C4E
  8
ELEVATOR
 10
136.58347440194819
 20
116.2649343590443
 30
0.0
 11
136.58347440194819
 21
114.2649343590443
 31
0.0
1001
GENIUS_GENREC_14
1002
{
1000
PYDIR
1011
136.58347440194819
1021
9.2233720396894542E+020
1031
0.0
1021
119.2649343590443
1031
0.0
1002
}
1002
{
1000
PXDIR
1011
150.58347440194819
1021
9.2233720396894542E+020
1031
0.0
1021
114.2649343590443
1031
0.0
1002
}
1002
{
1000
PORI
1011
136.58347440194819
1021
9.2233720396894542E+020
1031
0.0
1021
114.2649343590443
1031
0.0
1002
}
1002
{
1000
PINS
1011
136.58347440194819
1021
9.2233720396894542E+020
1031
0.0
1021
114.2649343590443
1031
0.0
1002
}
1002
{
1000
PINS2
1011
150.58347440194819
1021
9.2233720396894542E+020
1031
0.0
1021
119.2649343590443
1031
0.0
1002
}
1002
{
1000
C
1070
     1
1002
}
1001
GENIUS_GENODEF_13
1002
{
1000
HIER
1070
     0
1002
}
1002
{
1000
MANEDIT
1070
     0
1002
}
1002
{
1000
NOSEL
1070
     0
1002
}
1002
{
1000
BEHIND
1070
     0
1002
}
1002
{
1000
REACTOR
1002
}
1001
GENIUS_GENOBJ-N-REC_13
1002
{
1000
OWNER
1000
GEN
1002
}
  0
LINE
  5
C4F
  8
ELEVATOR
 10
135.83347440194819
 20
116.2649343590443
 30
0.0
 11
135.83347440194819
 21
114.2649343590443
 31
0.0
1001
GENIUS_GENREC_14
1002
{
1000
PYDIR
1011
135.83347440194819
1021
9.2233720396894542E+020
1031
0.0
1021
119.2649343590443
1031
0.0
1002
}
1002
{
1000
PXDIR
1011
149.83347440194819
1021
9.2233720396894542E+020
1031
0.0
1021
114.2649343590443
1031
0.0
1002
}
1002
{
1000
PORI
1011
135.83347440194819
1021
9.2233720396894542E+020
1031
0.0
1021
114.2649343590443
1031
0.0
1002
}
1002
{
1000
PINS
1011
135.83347440194819
1021
9.2233720396894542E+020
1031
0.0
1021
114.2649343590443
1031
0.0
1002
}
1002
{
1000
PINS2
1011
149.83347440194819
1021
9.2233720396894542E+020
1031
0.0
1021
119.2649343590443
1031
0.0
1002
}
1002
{
1000
C
1070
     1
1002
}
1001
GENIUS_GENODEF_13
1002
{
1000
HIER
1070
     0
1002
}
1002
{
1000
MANEDIT
1070
     0
1002
}
1002
{
1000
NOSEL
1070
     0
1002
}
1002
{
1000
BEHIND
1070
     0
1002
}
1002
{
1000
REACTOR
1002
}
1001
GENIUS_GENOBJ-N-REC_13
1002
{
1000
OWNER
1000
GEN
1002
}
  0
LINE
  5
C50
  8
ELEVATOR
 10
136.58347440194819
 20
114.2649343590443
 30
0.0
 11
142.70847440194819
 21
115.2649343590443
 31
0.0
1001
GENIUS_GENREC_14
1002
{
1000
PYDIR
1011
129.20847440194819
1021
9.2233720396894542E+020
1031
0.0
1021
119.2649343590443
1031
0.0
1002
}
1002
{
1000
PXDIR
1011
142.70847440194819
1021
9.2233720396894542E+020
1031
0.0
1021
115.2649343590443
1031
0.0
1002
}
1002
{
1000
PORI
1011
129.20847440194819
1021
9.2233720396894542E+020
1031
0.0
1021
114.2649343590443
1031
0.0
1002
}
1002
{
1000
PINS
1011
129.20847440194819
1021
9.2233720396894542E+020
1031
0.0
1021
114.2649343590443
1031
0.0
1002
}
1002
{
1000
PINS2
1011
143.20847440194819
1021
9.2233720396894542E+020
1031
0.0
1021
119.2649343590443
1031
0.0
1002
}
1002
{
1000
C
1070
     1
1002
}
1001
GENIUS_GENODEF_13
1002
{
1000
HIER
1070
     0
1002
}
1002
{
1000
MANEDIT
1070
     0
1002
}
1002
{
1000
NOSEL
1070
     0
1002
}
1002
{
1000
BEHIND
1070
     0
1002
}
1002
{
1000
REACTOR
1002
}
1001
GENIUS_GENOBJ-N-REC_13
1002
{
1000
OWNER
1000
GEN
1002
}
  0
LINE
  5
C53
  8
ELEVATOR
 10
143.20847440194819
 20
118.2649343590443
 30
0.0
 11
136.70847440194819
 21
119.2649343590443
 31
0.0
1001
GENIUS_GENREC_14
1002
{
1000
PYDIR
1011
136.70847440194819
1021
9.2233720396894542E+020
1031
0.0
1021
119.2649343590443
1031
0.0
1002
}
1002
{
1000
PXDIR
1011
143.20847440194819
1021
9.2233720396894542E+020
1031
0.0
1021
113.2649343590443
1031
0.0
1002
}
1002
{
1000
PORI
1011
129.20847440194819
1021
9.2233720396894542E+020
1031
0.0
1021
113.2649343590443
1031
0.0
1002
}
1002
{
1000
PINS
1011
129.20847440194819
1021
9.2233720396894542E+020
1031
0.0
1021
113.2649343590443
1031
0.0
1002
}
1002
{
1000
PINS2
1011
143.20847440194819
1021
9.2233720396894542E+020
1031
0.0
1021
118.2649343590443
1031
0.0
1002
}
1002
{
1000
C
1070
     1
1002
}
1001
GENIUS_GENODEF_13
1002
{
1000
HIER
1070
     0
1002
}
1002
{
1000
MANEDIT
1070
     0
1002
}
1002
{
1000
NOSEL
1070
     0
1002
}
1002
{
1000
BEHIND
1070
     0
1002
}
1002
{
1000
REACTOR
1002
}
1001
GENIUS_GENOBJ-N-REC_13
1002
{
1000
OWNER
1000
GEN
1002
}
  0
LINE
  5
C55
  8
ELEVATOR
 10
129.20847440194819
 20
118.2649343590443
 30
0.0
 11
135.70847440194819
 21
119.2649343590443
 31
0.0
1001
GENIUS_GENREC_14
1002
{
1000
PYDIR
1011
135.70847440194819
1021
9.2233720396894542E+020
1031
0.0
1021
119.2649343590443
1031
0.0
1002
}
1002
{
1000
PXDIR
1011
129.20847440194819
1021
9.2233720396894542E+020
1031
0.0
1021
113.2649343590443
1031
0.0
1002
}
1002
{
1000
PORI
1011
143.20847440194819
1021
9.2233720396894542E+020
1031
0.0
1021
113.2649343590443
1031
0.0
1002
}
1002
{
1000
PINS
1011
143.20847440194819
1021
9.2233720396894542E+020
1031
0.0
1021
113.2649343590443
1031
0.0
1002
}
1002
{
1000
PINS2
1011
129.20847440194819
1021
9.2233720396894542E+020
1031
0.0
1021
118.2649343590443
1031
0.0
1002
}
1002
{
1000
C
1070
     1
1002
}
1001
GENIUS_GENODEF_13
1002
{
1000
HIER
1070
     0
1002
}
1002
{
1000
MANEDIT
1070
     0
1002
}
1002
{
1000
NOSEL
1070
     0
1002
}
1002
{
1000
BEHIND
1070
     0
1002
}
1002
{
1000
REACTOR
1002
}
1001
GENIUS_GENOBJ-N-REC_13
1002
{
1000
OWNER
1000
GEN
1002
}
  0
LINE
  5
C56
  8
ELEVATOR
 10
135.83347440194819
 20
114.2649343590443
 30
0.0
 11
129.70847440194819
 21
115.2649343590443
 31
0.0
1001
GENIUS_GENREC_14
1002
{
1000
PYDIR
1011
143.20847440194819
1021
9.2233720396894542E+020
1031
0.0
1021
119.2649343590443
1031
0.0
1002
}
1002
{
1000
PXDIR
1011
129.70847440194819
1021
9.2233720396894542E+020
1031
0.0
1021
115.2649343590443
1031
0.0
1002
}
1002
{
1000
PORI
1011
143.20847440194819
1021
9.2233720396894542E+020
1031
0.0
1021
114.2649343590443
1031
0.0
1002
}
1002
{
1000
PINS
1011
143.20847440194819
1021
9.2233720396894542E+020
1031
0.0
1021
114.2649343590443
1031
0.0
1002
}
1002
{
1000
PINS2
1011
129.20847440194819
1021
9.2233720396894542E+020
1031
0.0
1021
119.2649343590443
1031
0.0
1002
}
1002
{
1000
C
1070
     1
1002
}
1001
GENIUS_GENODEF_13
1002
{
1000
HIER
1070
     0
1002
}
1002
{
1000
MANEDIT
1070
     0
1002
}
1002
{
1000
NOSEL
1070
     0
1002
}
1002
{
1000
BEHIND
1070
     0
1002
}
1002
{
1000
REACTOR
1002
}
1001
GENIUS_GENOBJ-N-REC_13
1002
{
1000
OWNER
1000
GEN
1002
}
  0
LINE
  5
C57
  8
ELEVATOR
 10
129.70847440194819
 20
115.2649343590443
 30
0.0
 11
129.20847440194819
 21
118.2649343590443
 31
0.0
1001
GENIUS_GENREC_14
1002
{
1000
PYDIR
1011
115.20847440194819
1021
9.2233720396894542E+020
1031
0.0
1021
119.2649343590443
1031
0.0
1002
}
1002
{
1000
PXDIR
1011
129.70847440194819
1021
9.2233720396894542E+020
1031
0.0
1021
115.2649343590443
1031
0.0
1002
}
1002
{
1000
PORI
1011
115.20847440194819
1021
9.2233720396894542E+020
1031
0.0
1021
114.2649343590443
1031
0.0
1002
}
1002
{
1000
PINS
1011
115.20847440194819
1021
9.2233720396894542E+020
1031
0.0
1021
114.2649343590443
1031
0.0
1002
}
1002
{
1000
PINS2
1011
129.20847440194819
1021
9.2233720396894542E+020
1031
0.0
1021
118.2649343590443
1031
0.0
1002
}
1002
{
1000
C
1070
     1
1002
}
1001
GENIUS_GENODEF_13
1002
{
1000
HIER
1070
     0
1002
}
1002
{
1000
MANEDIT
1070
     0
1002
}
1002
{
1000
NOSEL
1070
     0
1002
}
1002
{
1000
BEHIND
1070
     0
1002
}
1002
{
1000
REACTOR
1002
}
1001
GENIUS_GENOBJ-N-REC_13
1002
{
1000
OWNER
1000
GEN
1002
}
  0
LINE
  5
C58
  8
ELEVATOR
  6
HIDDEN
 10
142.8488943494483
 20
116.1074540440443
 30
0.0
 11
136.58347440194819
 21
116.1074540440443
 31
0.0
1001
GENIUS_GENREC_14
1002
{
1000
PYDIR
1011
129.20847440194819
1021
9.2233720396894542E+020
1031
0.0
1021
116.1074540440443
1031
0.0
1002
}
1002
{
1000
PXDIR
1011
143.20847440194819
1021
9.2233720396894542E+020
1031
0.0
1021
111.1074540440443
1031
0.0
1002
}
1002
{
1000
PORI
1011
129.20847440194819
1021
9.2233720396894542E+020
1031
0.0
1021
111.1074540440443
1031
0.0
1002
}
1002
{
1000
PINS
1011
129.20847440194819
1021
9.2233720396894542E+020
1031
0.0
1021
111.1074540440443
1031
0.0
1002
}
1002
{
1000
PINS2
1011
143.20847440194819
1021
9.2233720396894542E+020
1031
0.0
1021
116.1074540440443
1031
0.0
1002
}
1002
{
1000
C
1070
     1
1002
}
1001
GENIUS_GENODEF_13
1002
{
1000
HIER
1070
     0
1002
}
1002
{
1000
MANEDIT
1070
     0
1002
}
1002
{
1000
NOSEL
1070
     0
1002
}
1002
{
1000
BEHIND
1070
     0
1002
}
1002
{
1000
REACTOR
1002
}
1001
GENIUS_GENOBJ-N-REC_13
1002
{
1000
OWNER
1000
GEN
1002
}
  0
LINE
  5
C59
  8
ELEVATOR
  6
HIDDEN
 10
135.83347440194819
 20
116.1074540440443
 30
0.0
 11
129.56805445444829
 21
116.1074540440443
 31
0.0
1001
GENIUS_GENREC_14
1002
{
1000
PYDIR
1011
129.20847440194819
1021
9.2233720396894542E+020
1031
0.0
1021
116.1074540440443
1031
0.0
1002
}
1002
{
1000
PXDIR
1011
143.20847440194819
1021
9.2233720396894542E+020
1031
0.0
1021
111.1074540440443
1031
0.0
1002
}
1002
{
1000
PORI
1011
129.20847440194819
1021
9.2233720396894542E+020
1031
0.0
1021
111.1074540440443
1031
0.0
1002
}
1002
{
1000
PINS
1011
129.20847440194819
1021
9.2233720396894542E+020
1031
0.0
1021
111.1074540440443
1031
0.0
1002
}
1002
{
1000
PINS2
1011
143.20847440194819
1021
9.2233720396894542E+020
1031
0.0
1021
116.1074540440443
1031
0.0
1002
}
1002
{
1000
C
1070
     1
1002
}
1001
GENIUS_GENODEF_13
1002
{
1000
HIER
1070
     0
1002
}
1002
{
1000
MANEDIT
1070
     0
1002
}
1002
{
1000
NOSEL
1070
     0
1002
}
1002
{
1000
BEHIND
1070
     0
1002
}
1002
{
1000
REACTOR
1002
}
1001
GENIUS_GENOBJ-N-REC_13
1002
{
1000
OWNER
1000
GEN
1002
}
  0
LINE
  5
C5A
  8
ELEVATOR
  6
HIDDEN
 10
135.83347440194819
 20
116.2649343590443
 30
0.0
 11
129.54180773528159
 21
116.2649343590443
 31
0.0
1001
GENIUS_GENREC_14
1002
{
1000
PYDIR
1011
129.20847440194819
1021
9.2233720396894542E+020
1031
0.0
1021
116.2649343590443
1031
0.0
1002
}
1002
{
1000
PXDIR
1011
143.20847440194819
1021
9.2233720396894542E+020
1031
0.0
1021
111.2649343590443
1031
0.0
1002
}
1002
{
1000
PORI
1011
129.20847440194819
1021
9.2233720396894542E+020
1031
0.0
1021
111.2649343590443
1031
0.0
1002
}
1002
{
1000
PINS
1011
129.20847440194819
1021
9.2233720396894542E+020
1031
0.0
1021
111.2649343590443
1031
0.0
1002
}
1002
{
1000
PINS2
1011
143.20847440194819
1021
9.2233720396894542E+020
1031
0.0
1021
116.2649343590443
1031
0.0
1002
}
1002
{
1000
C
1070
     1
1002
}
1001
GENIUS_GENODEF_13
1002
{
1000
HIER
1070
     0
1002
}
1002
{
1000
MANEDIT
1070
     0
1002
}
1002
{
1000
NOSEL
1070
     0
1002
}
1002
{
1000
BEHIND
1070
     0
1002
}
1002
{
1000
REACTOR
1002
}
1001
GENIUS_GENOBJ-N-REC_13
1002
{
1000
OWNER
1000
GEN
1002
}
  0
LINE
  5
C5B
  8
ELEVATOR
 10
136.58347440194819
 20
116.2649343590443
 30
0.0
 11
135.83347440194819
 21
116.2649343590443
 31
0.0
1001
GENIUS_GENREC_14
1002
{
1000
PYDIR
1011
129.33347440194819
1021
9.2233720396894542E+020
1031
0.0
1021
116.2649343590443
1031
0.0
1002
}
1002
{
1000
PXDIR
1011
143.33347440194819
1021
9.2233720396894542E+020
1031
0.0
1021
111.2649343590443
1031
0.0
1002
}
1002
{
1000
PORI
1011
129.33347440194819
1021
9.2233720396894542E+020
1031
0.0
1021
111.2649343590443
1031
0.0
1002
}
1002
{
1000
PINS
1011
129.33347440194819
1021
9.2233720396894542E+020
1031
0.0
1021
111.2649343590443
1031
0.0
1002
}
1002
{
1000
PINS2
1011
143.33347440194819
1021
9.2233720396894542E+020
1031
0.0
1021
116.2649343590443
1031
0.0
1002
}
1002
{
1000
C
1070
     1
1002
}
1001
GENIUS_GENODEF_13
1002
{
1000
HIER
1070
     0
1002
}
1002
{
1000
MANEDIT
1070
     0
1002
}
1002
{
1000
NOSEL
1070
     0
1002
}
1002
{
1000
BEHIND
1070
     0
1002
}
1002
{
1000
REACTOR
1002
}
1001
GENIUS_GENOBJ-N-REC_13
1002
{
1000
OWNER
1000
GEN
1002
}
  0
POLYLINE
  5
C5D
  8
DIM
 62
     2
 66
     1
 10
0.0
 20
0.0
 30
0.0
 41
0.125
  0
VERTEX
  5
10BD
  8
DIM
 62
     2
 10
135.20847440194819
 20
114.68619420204431
 30
0.0
  0
VERTEX
  5
10BE
  8
DIM
 62
     2
 10
135.20847440194819
 20
115.18619420204431
 30
0.0
 40
0.125
  0
VERTEX
  5
10BF
  8
DIM
 62
     2
 10
135.20847440194819
 20
116.18619420204431
 30
0.0
 40
0.125
  0
VERTEX
  5
10C0
  8
DIM
 62
     2
 10
137.20847440194819
 20
116.18619420204431
 30
0.0
 40
0.125
  0
VERTEX
  5
10C1
  8
DIM
 62
     2
 10
137.20847440194819
 20
115.18619420204431
 30
0.0
 40
0.125
 41
0.0
  0
VERTEX
  5
10C2
  8
DIM
 62
     2
 10
137.20847440194819
 20
114.68619420204431
 30
0.0
 40
0.125
 41
0.0
  0
SEQEND
  5
10C3
  8
DIM
 62
     2
  0
DIMENSION
  5
C5E
  8
DIM
  2
*D25
 10
136.70847440194819
 20
120.39998167754079
 30
0.0
 11
136.20847440194819
 21
120.39998167754079
 31
0.0
 70
   128
 13
135.70847440194819
 23
119.2649343590443
 33
0.0
 14
136.70847440194819
 24
119.2649343590443
 34
0.0
  0
DIMENSION
  5
C78
  8
DIM
  2
*D26
 10
143.20847440194819
 20
121.6300601870816
 30
0.0
 11
136.20847440194819
 21
121.6300601870816
 31
0.0
 70
     0
 13
129.20847440194819
 23
118.2649343590443
 33
0.0
 14
143.20847440194819
 24
118.2649343590443
 34
0.0
  0
DIMENSION
  5
C86
  8
DIM
  2
*D27
 10
142.70847440194819
 20
112.46529919731741
 30
0.0
 11
136.20847440194819
 21
112.46529919731741
 31
0.0
 70
     0
 13
129.70847440194819
 23
115.2649343590443
 33
0.0
 14
142.70847440194819
 24
115.2649343590443
 34
0.0
  0
DIMENSION
  5
C94
  8
DIM
  2
*D28
 10
136.58347440194819
 20
113.560204260326
 30
0.0
 11
138.7406172590911
 21
113.560204260326
 31
0.0
 70
     0
 13
135.83347440194819
 23
114.2649343590443
 33
0.0
 14
136.58347440194819
 24
114.2649343590443
 34
0.0
  0
DIMENSION
  5
CA2
  8
DIM
  2
*D29
 10
144.21611660311939
 20
116.2649343590443
 30
0.0
 11
144.2161166031193
 21
118.3744581685681
 31
0.0
 70
     0
 13
142.70847440194819
 23
115.2649343590443
 33
0.0
 14
142.87514106861491
 24
116.2649343590443
 34
0.0
 50
90.0
  0
DIMENSION
  5
CB0
  8
DIM
  2
*D30
 10
128.19144915796849
 20
118.2649343590443
 30
0.0
 11
128.19144915796849
 21
117.2649343590443
 31
0.0
 70
     0
 13
129.54180773528159
 23
116.2649343590443
 33
0.0
 14
129.20847440194819
 24
118.2649343590443
 34
0.0
 50
90.0
  0
DIMENSION
  5
CBE
  8
DIM
  2
*D31
 10
136.20847440194831
 20
119.2649343590443
 30
0.0
 11
136.20847440194819
 21
117.7649343590443
 31
0.0
 70
   128
 13
136.20847440194819
 23
116.2649343590443
 33
0.0
 14
136.20847440194819
 24
119.2649343590443
 34
0.0
 50
90.0
1001
ACAD
1000
DSTYLE
1002
{
1070
    76
1070
     1
1070
    75
1070
     1
1002
}
  0
POLYLINE
  8
0
  5
111B
  66
     1
 10
0.000000
 20
0.000000
 30
0.000000
  70
     8
  0
VERTEX
  8
0
  5
111C
 10
130.947
 20
117.279
 30
0.000000
  70
    32
  0
VERTEX
  8
0
  5
111D
 10
132.669
 20
117.279
 30
0.000000
  70
    32
  0
SEQEND
  8
0
  5
111E
  0
POLYLINE
  8
0
  5
111F
  66
     1
 10
0.000000
 20
0.000000
 30
0.000000
  70
     8
  0
VERTEX
  8
0
  5
1120
 10
134.391
 20
117.279
 30
0.000000
  70
    32
  0
VERTEX
  8
0
  5
1121
 10
132.669
 20
117.279
 30
0.000000
  70
    32
  0
SEQEND
  8
0
  5
1122
  0
POLYLINE
  8
0
  5
1123
  66
     1
 10
0.000000
 20
0.000000
 30
0.000000
  70
     8
  0
VERTEX
  8
0
  5
1124
 10
115.230
 20
115.557
 30
0.000000
  70
    32
  0
VERTEX
  8
0
  5
1125
 10
115.230
 20
117.279
 30
0.000000
  70
    32
  0
SEQEND
  8
0
  5
1126
  0
POLYLINE
  8
0
  5
1127
  66
     1
 10
0.000000
 20
0.000000
 30
0.000000
  70
     8
  0
VERTEX
  8
0
  5
1128
 10
115.230
 20
119.001
 30
0.000000
  70
    32
  0
VERTEX
  8
0
  5
1129
 10
115.230
 20
117.279
 30
0.000000
  70
    32
  0
SEQEND
  8
0
  5
112A
  0
POLYLINE
  8
0
  5
112B
  66
     1
 10
0.000000
 20
0.000000
 30
0.000000
  70
     8
  0
VERTEX
  8
0
  5
112C
 10
134.423
 20
130.043
 30
0.000000
  70
    32
  0
VERTEX
  8
0
  5
112D
 10
136.137
 20
130.214
 30
0.000000
  70
    32
  0
SEQEND
  8
0
  5
112E
  0
POLYLINE
  8
0
  5
112F
  66
     1
 10
0.000000
 20
0.000000
 30
0.000000
  70
     8
  0
VERTEX
  8
0
  5
1130
 10
137.850
 20
130.386
 30
0.000000
  70
    32
  0
VERTEX
  8
0
  5
1131
 10
136.137
 20
130.214
 30
0.000000
  70
    32
  0
SEQEND
  8
0
  5
1132
  0
POLYLINE
  8
0
  5
1133
  66
     1
 10
0.000000
 20
0.000000
 30
0.000000
  70
     8
  0
VERTEX
  8
0
  5
1134
 10
113.605
 20
130.043
 30
0.000000
  70
    32
  0
VERTEX
  8
0
  5
1135
 10
111.892
 20
130.214
 30
0.000000
  70
    32
  0
SEQEND
  8
0
  5
1136
  0
POLYLINE
  8
0
  5
1137
  66
     1
 10
0.000000
 20
0.000000
 30
0.000000
  70
     8
  0
VERTEX
  8
0
  5
1138
 10
110.179
 20
130.386
 30
0.000000
  70
    32
  0
VERTEX
  8
0
  5
1139
 10
111.892
 20
130.214
 30
0.000000
  70
    32
  0
SEQEND
  8
0
  5
113A
  0
POLYLINE
  8
0
  5
113B
  66
     1
 10
0.000000
 20
0.000000
 30
0.000000
  70
     8
  0
VERTEX
  8
0
  5
113C
 10
115.230
 20
161.722
 30
0.000000
  70
    32
  0
VERTEX
  8
0
  5
113D
 10
115.230
 20
160.000
 30
0.000000
  70
    32
  0
SEQEND
  8
0
  5
113E
  0
POLYLINE
  8
0
  5
113F
  66
     1
 10
0.000000
 20
0.000000
 30
0.000000
  70
     8
  0
VERTEX
  8
0
  5
1140
 10
115.230
 20
158.279
 30
0.000000
  70
    32
  0
VERTEX
  8
0
  5
1141
 10
115.230
 20
160.000
 30
0.000000
  70
    32
  0
SEQEND
  8
0
  5
1142
  0
LINE
  5
D04
  8
FUSELAGE
 10
139.2571353155252
 20
98.083191590337265
 30
0.0
 11
139.2571353155252
 21
99.583191590337265
 31
0.0
1001
GENIUS_GENREC_14
1002
{
1000
PYDIR
1011
109.2571353155252
1021
9.2233720396894542E+020
1031
0.0
1021
106.95819159033719
1031
0.0
1002
}
1002
{
1000
PXDIR
1011
139.2571353155252
1021
9.2233720396894542E+020
1031
0.0
1021
93.708191590337236
1031
0.0
1002
}
1002
{
1000
PORI
1011
109.2571353155252
1021
9.2233720396894542E+020
1031
0.0
1021
93.708191590337236
1031
0.0
1002
}
1002
{
1000
PINS
1011
109.2571353155252
1021
9.2233720396894542E+020
1031
0.0
1021
93.708191590337236
1031
0.0
1002
}
1002
{
1000
PINS2
1011
139.2571353155252
1021
9.2233720396894542E+020
1031
0.0
1021
106.95819159033719
1031
0.0
1002
}
1002
{
1000
C
1070
     1
1002
}
1001
GENIUS_GENODEF_13
1002
{
1000
HIER
1070
     0
1002
}
1002
{
1000
MANEDIT
1070
     0
1002
}
1002
{
1000
NOSEL
1070
     0
1002
}
1002
{
1000
BEHIND
1070
     0
1002
}
1002
{
1000
REACTOR
1002
}
1001
GENIUS_GENOBJ-N-REC_13
1002
{
1000
OWNER
1000
GEN
1002
}
  0
LINE
  5
D06
  8
FUSELAGE
 10
109.2571353155252
 20
103.95819159033719
 30
0.0
 11
109.2571353155252
 21
101.95819159033719
 31
0.0
1001
GENIUS_GENREC_14
1002
{
1000
PYDIR
1011
109.2571353155252
1021
9.2233720396894542E+020
1031
0.0
1021
103.95819159033719
1031
0.0
1002
}
1002
{
1000
PXDIR
1011
139.2571353155252
1021
9.2233720396894542E+020
1031
0.0
1021
93.708191590337236
1031
0.0
1002
}
1002
{
1000
PORI
1011
109.2571353155252
1021
9.2233720396894542E+020
1031
0.0
1021
93.708191590337236
1031
0.0
1002
}
1002
{
1000
PINS
1011
109.2571353155252
1021
9.2233720396894542E+020
1031
0.0
1021
93.708191590337236
1031
0.0
1002
}
1002
{
1000
PINS2
1011
139.2571353155252
1021
9.2233720396894542E+020
1031
0.0
1021
106.95819159033719
1031
0.0
1002
}
1002
{
1000
C
1070
     1
1002
}
1001
GENIUS_GENODEF_13
1002
{
1000
HIER
1070
     0
1002
}
1002
{
1000
MANEDIT
1070
     0
1002
}
1002
{
1000
NOSEL
1070
     0
1002
}
1002
{
1000
BEHIND
1070
     0
1002
}
1002
{
1000
REACTOR
1002
}
1001
GENIUS_GENOBJ-N-REC_13
1002
{
1000
OWNER
1000
GEN
1002
}
  0
LINE
  5
D08
  8
FUSELAGE
 10
109.2571353155252
 20
98.708191590337236
 30
0.0
 11
112.5071353155252
 21
98.708191590337236
 31
0.0
1001
GENIUS_GENREC_14
1002
{
1000
PYDIR
1011
109.2571353155252
1021
9.2233720396894542E+020
1031
0.0
1021
111.95819159033719
1031
0.0
1002
}
1002
{
1000
PXDIR
1011
139.2571353155252
1021
9.2233720396894542E+020
1031
0.0
1021
98.708191590337236
1031
0.0
1002
}
1002
{
1000
PORI
1011
109.2571353155252
1021
9.2233720396894542E+020
1031
0.0
1021
98.708191590337236
1031
0.0
1002
}
1002
{
1000
PINS
1011
109.2571353155252
1021
9.2233720396894542E+020
1031
0.0
1021
98.708191590337236
1031
0.0
1002
}
1002
{
1000
PINS2
1011
139.2571353155252
1021
9.2233720396894542E+020
1031
0.0
1021
111.95819159033719
1031
0.0
1002
}
1002
{
1000
C
1070
     1
1002
}
1001
GENIUS_GENODEF_13
1002
{
1000
HIER
1070
     0
1002
}
1002
{
1000
MANEDIT
1070
     0
1002
}
1002
{
1000
NOSEL
1070
     0
1002
}
1002
{
1000
BEHIND
1070
     0
1002
}
1002
{
1000
REACTOR
1002
}
1001
GENIUS_GENOBJ-N-REC_13
1002
{
1000
OWNER
1000
GEN
1002
}
  0
LINE
  5
D09
  8
FUSELAGE
 10
109.2571353155252
 20
101.95819159033719
 30
0.0
 11
112.5071353155252
 21
101.95819159033719
 31
0.0
1001
GENIUS_GENREC_14
1002
{
1000
PYDIR
1011
109.2571353155252
1021
9.2233720396894542E+020
1031
0.0
1021
115.20819159033719
1031
0.0
1002
}
1002
{
1000
PXDIR
1011
139.2571353155252
1021
9.2233720396894542E+020
1031
0.0
1021
101.95819159033719
1031
0.0
1002
}
1002
{
1000
PORI
1011
109.2571353155252
1021
9.2233720396894542E+020
1031
0.0
1021
101.95819159033719
1031
0.0
1002
}
1002
{
1000
PINS
1011
109.2571353155252
1021
9.2233720396894542E+020
1031
0.0
1021
101.95819159033719
1031
0.0
1002
}
1002
{
1000
PINS2
1011
139.2571353155252
1021
9.2233720396894542E+020
1031
0.0
1021
115.20819159033719
1031
0.0
1002
}
1002
{
1000
C
1070
     1
1002
}
1001
GENIUS_GENODEF_13
1002
{
1000
HIER
1070
     0
1002
}
1002
{
1000
MANEDIT
1070
     0
1002
}
1002
{
1000
NOSEL
1070
     0
1002
}
1002
{
1000
BEHIND
1070
     0
1002
}
1002
{
1000
REACTOR
1002
}
1001
GENIUS_GENOBJ-N-REC_13
1002
{
1000
OWNER
1000
GEN
1002
}
  0
LINE
  5
D0A
  8
FUSELAGE
 10
112.5071353155252
 20
101.95819159033719
 30
0.0
 11
112.5071353155252
 21
98.708191590337236
 31
0.0
1001
GENIUS_GENREC_14
1002
{
1000
PYDIR
1011
112.5071353155252
1021
9.2233720396894542E+020
1031
0.0
1021
106.95819159033719
1031
0.0
1002
}
1002
{
1000
PXDIR
1011
142.5071353155252
1021
9.2233720396894542E+020
1031
0.0
1021
93.708191590337236
1031
0.0
1002
}
1002
{
1000
PORI
1011
112.5071353155252
1021
9.2233720396894542E+020
1031
0.0
1021
93.708191590337236
1031
0.0
1002
}
1002
{
1000
PINS
1011
112.5071353155252
1021
9.2233720396894542E+020
1031
0.0
1021
93.708191590337236
1031
0.0
1002
}
1002
{
1000
PINS2
1011
142.5071353155252
1021
9.2233720396894542E+020
1031
0.0
1021
106.95819159033719
1031
0.0
1002
}
1002
{
1000
C
1070
     1
1002
}
1001
GENIUS_GENODEF_13
1002
{
1000
HIER
1070
     0
1002
}
1002
{
1000
MANEDIT
1070
     0
1002
}
1002
{
1000
NOSEL
1070
     0
1002
}
1002
{
1000
BEHIND
1070
     0
1002
}
1002
{
1000
REACTOR
1002
}
1001
GENIUS_GENOBJ-N-REC_13
1002
{
1000
OWNER
1000
GEN
1002
}
  0
LINE
  5
D0B
  8
FUSELAGE
 10
109.2571353155252
 20
98.708191590337236
 30
0.0
 11
109.2571353155252
 21
96.708191590337279
 31
0.0
1001
GENIUS_GENREC_14
1002
{
1000
PYDIR
1011
109.2571353155252
1021
9.2233720396894542E+020
1031
0.0
1021
106.95819159033719
1031
0.0
1002
}
1002
{
1000
PXDIR
1011
139.2571353155252
1021
9.2233720396894542E+020
1031
0.0
1021
93.708191590337236
1031
0.0
1002
}
1002
{
1000
PORI
1011
109.2571353155252
1021
9.2233720396894542E+020
1031
0.0
1021
93.708191590337236
1031
0.0
1002
}
1002
{
1000
PINS
1011
109.2571353155252
1021
9.2233720396894542E+020
1031
0.0
1021
93.708191590337236
1031
0.0
1002
}
1002
{
1000
PINS2
1011
139.2571353155252
1021
9.2233720396894542E+020
1031
0.0
1021
106.95819159033719
1031
0.0
1002
}
1002
{
1000
C
1070
     1
1002
}
1001
GENIUS_GENODEF_13
1002
{
1000
HIER
1070
     0
1002
}
1002
{
1000
MANEDIT
1070
     0
1002
}
1002
{
1000
NOSEL
1070
     0
1002
}
1002
{
1000
BEHIND
1070
     0
1002
}
1002
{
1000
REACTOR
1002
}
1001
GENIUS_GENOBJ-N-REC_13
1002
{
1000
OWNER
1000
GEN
1002
}
  0
LINE
  5
D0C
  8
FUSELAGE
 10
116.0071353155252
 20
95.70819159033725
 30
0.0
 11
115.7140379933463
 21
93.729784665629495
 31
0.0
1001
GENIUS_GENREC_14
1002
{
1000
PYDIR
1011
116.0071353155252
1021
9.2233720396894542E+020
1031
0.0
1021
106.95819159033719
1031
0.0
1002
}
1002
{
1000
PXDIR
1011
146.0071353155252
1021
9.2233720396894542E+020
1031
0.0
1021
93.708191590337236
1031
0.0
1002
}
1002
{
1000
PORI
1011
115.7140379933463
1021
9.2233720396894542E+020
1031
0.0
1021
93.729784665629495
1031
0.0
1002
}
1002
{
1000
PINS
1011
115.7140379933463
1021
9.2233720396894542E+020
1031
0.0
1021
93.729784665629495
1031
0.0
1002
}
1002
{
1000
PINS2
1011
146.0071353155252
1021
9.2233720396894542E+020
1031
0.0
1021
106.95819159033719
1031
0.0
1002
}
1002
{
1000
C
1070
     1
1002
}
1001
GENIUS_GENODEF_13
1002
{
1000
HIER
1070
     0
1002
}
1002
{
1000
MANEDIT
1070
     0
1002
}
1002
{
1000
NOSEL
1070
     0
1002
}
1002
{
1000
BEHIND
1070
     0
1002
}
1002
{
1000
REACTOR
1002
}
1001
GENIUS_GENOBJ-N-REC_13
1002
{
1000
OWNER
1000
GEN
1002
}
  0
LINE
  5
D0D
  8
FUSELAGE
 10
126.0071353155252
 20
95.708191590337236
 30
0.0
 11
126.36000209033649
 21
93.7395664256006
 31
0.0
1001
GENIUS_GENREC_14
1002
{
1000
PYDIR
1011
126.0071353155252
1021
9.2233720396894542E+020
1031
0.0
1021
106.95819159033719
1031
0.0
1002
}
1002
{
1000
PXDIR
1011
156.0071353155252
1021
9.2233720396894542E+020
1031
0.0
1021
93.708191590337236
1031
0.0
1002
}
1002
{
1000
PORI
1011
126.36000209033649
1021
9.2233720396894542E+020
1031
0.0
1021
93.7395664256006
1031
0.0
1002
}
1002
{
1000
PINS
1011
126.36000209033649
1021
9.2233720396894542E+020
1031
0.0
1021
93.7395664256006
1031
0.0
1002
}
1002
{
1000
PINS2
1011
156.0071353155252
1021
9.2233720396894542E+020
1031
0.0
1021
106.95819159033719
1031
0.0
1002
}
1002
{
1000
C
1070
     1
1002
}
1001
GENIUS_GENODEF_13
1002
{
1000
HIER
1070
     0
1002
}
1002
{
1000
MANEDIT
1070
     0
1002
}
1002
{
1000
NOSEL
1070
     0
1002
}
1002
{
1000
BEHIND
1070
     0
1002
}
1002
{
1000
REACTOR
1002
}
1001
GENIUS_GENOBJ-N-REC_13
1002
{
1000
OWNER
1000
GEN
1002
}
  0
LINE
  5
D0E
  8
FUSELAGE
  6
PHANTOM2
 10
109.2571353155252
 20
96.708191590337236
 30
0.0
 11
112.7571353155252
 21
96.189673071818717
 31
0.0
1001
GENIUS_GENREC_14
1002
{
1000
PYDIR
1011
109.2571353155252
1021
9.2233720396894542E+020
1031
0.0
1021
109.95819159033719
1031
0.0
1002
}
1002
{
1000
PXDIR
1011
139.2571353155252
1021
9.2233720396894542E+020
1031
0.0
1021
96.708191590337236
1031
0.0
1002
}
1002
{
1000
PORI
1011
109.2571353155252
1021
9.2233720396894542E+020
1031
0.0
1021
96.708191590337236
1031
0.0
1002
}
1002
{
1000
PINS
1011
109.2571353155252
1021
9.2233720396894542E+020
1031
0.0
1021
96.708191590337236
1031
0.0
1002
}
1002
{
1000
PINS2
1011
139.2571353155252
1021
9.2233720396894542E+020
1031
0.0
1021
109.95819159033719
1031
0.0
1002
}
1002
{
1000
C
1070
     1
1002
}
1001
GENIUS_GENODEF_13
1002
{
1000
HIER
1070
     0
1002
}
1002
{
1000
MANEDIT
1070
     0
1002
}
1002
{
1000
NOSEL
1070
     0
1002
}
1002
{
1000
BEHIND
1070
     0
1002
}
1002
{
1000
REACTOR
1002
}
1001
GENIUS_GENOBJ-N-REC_13
1002
{
1000
OWNER
1000
GEN
1002
}
  0
LINE
  5
D10
  8
FUSELAGE
  6
HIDDEN
 10
116.0071353155252
 20
95.708191590337236
 30
0.0
 11
126.0071353155252
 21
95.708191590337236
 31
0.0
1001
GENIUS_GENREC_14
1002
{
1000
PYDIR
1011
109.2571353155252
1021
9.2233720396894542E+020
1031
0.0
1021
108.95819159033719
1031
0.0
1002
}
1002
{
1000
PXDIR
1011
139.2571353155252
1021
9.2233720396894542E+020
1031
0.0
1021
95.708191590337236
1031
0.0
1002
}
1002
{
1000
PORI
1011
116.0071353155252
1021
9.2233720396894542E+020
1031
0.0
1021
95.708191590337236
1031
0.0
1002
}
1002
{
1000
PINS
1011
116.0071353155252
1021
9.2233720396894542E+020
1031
0.0
1021
95.708191590337236
1031
0.0
1002
}
1002
{
1000
PINS2
1011
139.2571353155252
1021
9.2233720396894542E+020
1031
0.0
1021
108.95819159033719
1031
0.0
1002
}
1002
{
1000
C
1070
     1
1002
}
1001
GENIUS_GENODEF_13
1002
{
1000
HIER
1070
     0
1002
}
1002
{
1000
MANEDIT
1070
     0
1002
}
1002
{
1000
NOSEL
1070
     0
1002
}
1002
{
1000
BEHIND
1070
     0
1002
}
1002
{
1000
REACTOR
1002
}
1001
GENIUS_GENOBJ-N-REC_13
1002
{
1000
OWNER
1000
GEN
1002
}
  0
LINE
  5
D18
  8
FUSELAGE
 10
108.9640379933463
 20
94.729784665629495
 30
0.0
 11
115.7140379933463
 21
93.729784665629495
 31
0.0
1001
GENIUS_GENREC_14
1002
{
1000
PYDIR
1011
109.2571353155252
1021
9.2233720396894542E+020
1031
0.0
1021
109.95819159033719
1031
0.0
1002
}
1002
{
1000
PXDIR
1011
139.2571353155252
1021
9.2233720396894542E+020
1031
0.0
1021
96.708191590337236
1031
0.0
1002
}
1002
{
1000
PORI
1011
109.2571353155252
1021
9.2233720396894542E+020
1031
0.0
1021
96.708191590337236
1031
0.0
1002
}
1002
{
1000
PINS
1011
109.2571353155252
1021
9.2233720396894542E+020
1031
0.0
1021
96.708191590337236
1031
0.0
1002
}
1002
{
1000
PINS2
1011
139.2571353155252
1021
9.2233720396894542E+020
1031
0.0
1021
109.95819159033719
1031
0.0
1002
}
1002
{
1000
C
1070
     1
1002
}
1001
GENIUS_GENODEF_13
1002
{
1000
HIER
1070
     0
1002
}
1002
{
1000
MANEDIT
1070
     0
1002
}
1002
{
1000
NOSEL
1070
     0
1002
}
1002
{
1000
BEHIND
1070
     0
1002
}
1002
{
1000
REACTOR
1002
}
1001
GENIUS_GENOBJ-N-REC_13
1002
{
1000
OWNER
1000
GEN
1002
}
  0
LINE
  5
D19
  8
FUSELAGE
 10
109.2571353155252
 20
96.708191590337265
 30
0.0
 11
108.9640379933463
 21
94.729784665629495
 31
0.0
1001
GENIUS_GENREC_14
1002
{
1000
PYDIR
1011
109.2571353155252
1021
9.2233720396894542E+020
1031
0.0
1021
107.95819159033719
1031
0.0
1002
}
1002
{
1000
PXDIR
1011
139.2571353155252
1021
9.2233720396894542E+020
1031
0.0
1021
94.708191590337236
1031
0.0
1002
}
1002
{
1000
PORI
1011
108.9640379933463
1021
9.2233720396894542E+020
1031
0.0
1021
94.729784665629495
1031
0.0
1002
}
1002
{
1000
PINS
1011
108.9640379933463
1021
9.2233720396894542E+020
1031
0.0
1021
94.729784665629495
1031
0.0
1002
}
1002
{
1000
PINS2
1011
139.2571353155252
1021
9.2233720396894542E+020
1031
0.0
1021
107.95819159033719
1031
0.0
1002
}
1002
{
1000
C
1070
     1
1002
}
1001
GENIUS_GENODEF_13
1002
{
1000
HIER
1070
     0
1002
}
1002
{
1000
MANEDIT
1070
     0
1002
}
1002
{
1000
NOSEL
1070
     0
1002
}
1002
{
1000
BEHIND
1070
     0
1002
}
1002
{
1000
REACTOR
1002
}
1001
GENIUS_GENOBJ-N-REC_13
1002
{
1000
OWNER
1000
GEN
1002
}
  0
LINE
  5
D1B
  8
FUSELAGE
 10
134.2571353155252
 20
99.583191590337236
 30
0.0
 11
134.2571353155252
 21
101.08319159033719
 31
0.0
1001
GENIUS_GENREC_14
1002
{
1000
PYDIR
1011
104.2571353155252
1021
9.2233720396894542E+020
1031
0.0
1021
106.95819159033719
1031
0.0
1002
}
1002
{
1000
PXDIR
1011
134.2571353155252
1021
9.2233720396894542E+020
1031
0.0
1021
93.708191590337236
1031
0.0
1002
}
1002
{
1000
PORI
1011
104.2571353155252
1021
9.2233720396894542E+020
1031
0.0
1021
93.708191590337236
1031
0.0
1002
}
1002
{
1000
PINS
1011
104.2571353155252
1021
9.2233720396894542E+020
1031
0.0
1021
93.708191590337236
1031
0.0
1002
}
1002
{
1000
PINS2
1011
134.2571353155252
1021
9.2233720396894542E+020
1031
0.0
1021
106.95819159033719
1031
0.0
1002
}
1002
{
1000
C
1070
     1
1002
}
1001
GENIUS_GENODEF_13
1002
{
1000
HIER
1070
     0
1002
}
1002
{
1000
MANEDIT
1070
     0
1002
}
1002
{
1000
NOSEL
1070
     0
1002
}
1002
{
1000
BEHIND
1070
     0
1002
}
1002
{
1000
REACTOR
1002
}
1001
GENIUS_GENOBJ-N-REC_13
1002
{
1000
OWNER
1000
GEN
1002
}
  0
LINE
  5
D1C
  8
FUSELAGE
 10
134.2571353155252
 20
99.583191590337236
 30
0.0
 11
139.2571353155252
 21
99.583191590337236
 31
0.0
1001
GENIUS_GENREC_14
1002
{
1000
PYDIR
1011
109.2571353155252
1021
9.2233720396894542E+020
1031
0.0
1021
112.83319159033719
1031
0.0
1002
}
1002
{
1000
PXDIR
1011
139.2571353155252
1021
9.2233720396894542E+020
1031
0.0
1021
99.583191590337236
1031
0.0
1002
}
1002
{
1000
PORI
1011
109.2571353155252
1021
9.2233720396894542E+020
1031
0.0
1021
99.583191590337236
1031
0.0
1002
}
1002
{
1000
PINS
1011
109.2571353155252
1021
9.2233720396894542E+020
1031
0.0
1021
99.583191590337236
1031
0.0
1002
}
1002
{
1000
PINS2
1011
139.2571353155252
1021
9.2233720396894542E+020
1031
0.0
1021
112.83319159033719
1031
0.0
1002
}
1002
{
1000
C
1070
     1
1002
}
1001
GENIUS_GENODEF_13
1002
{
1000
HIER
1070
     0
1002
}
1002
{
1000
MANEDIT
1070
     0
1002
}
1002
{
1000
NOSEL
1070
     0
1002
}
1002
{
1000
BEHIND
1070
     0
1002
}
1002
{
1000
REACTOR
1002
}
1001
GENIUS_GENOBJ-N-REC_13
1002
{
1000
OWNER
1000
GEN
1002
}
  0
LINE
  5
D1D
  8
FUSELAGE
 10
134.2571353155252
 20
101.08319159033719
 30
0.0
 11
139.2571353155252
 21
101.08319159033719
 31
0.0
1001
GENIUS_GENREC_14
1002
{
1000
PYDIR
1011
109.2571353155252
1021
9.2233720396894542E+020
1031
0.0
1021
114.33319159033719
1031
0.0
1002
}
1002
{
1000
PXDIR
1011
139.2571353155252
1021
9.2233720396894542E+020
1031
0.0
1021
101.08319159033719
1031
0.0
1002
}
1002
{
1000
PORI
1011
109.2571353155252
1021
9.2233720396894542E+020
1031
0.0
1021
101.08319159033719
1031
0.0
1002
}
1002
{
1000
PINS
1011
109.2571353155252
1021
9.2233720396894542E+020
1031
0.0
1021
101.08319159033719
1031
0.0
1002
}
1002
{
1000
PINS2
1011
139.2571353155252
1021
9.2233720396894542E+020
1031
0.0
1021
114.33319159033719
1031
0.0
1002
}
1002
{
1000
C
1070
     1
1002
}
1001
GENIUS_GENODEF_13
1002
{
1000
HIER
1070
     0
1002
}
1002
{
1000
MANEDIT
1070
     0
1002
}
1002
{
1000
NOSEL
1070
     0
1002
}
1002
{
1000
BEHIND
1070
     0
1002
}
1002
{
1000
REACTOR
1002
}
1001
GENIUS_GENOBJ-N-REC_13
1002
{
1000
OWNER
1000
GEN
1002
}
  0
LINE
  5
D1E
  8
FUSELAGE
  6
PHANTOM2
 10
127.7571353155252
 20
96.021870835620277
 30
0.0
 11
139.2571353155252
 21
98.083191590337236
 31
0.0
1001
GENIUS_GENREC_14
1002
{
1000
PYDIR
1011
109.2571353155252
1021
9.2233720396894542E+020
1031
0.0
1021
111.33319159033719
1031
0.0
1002
}
1002
{
1000
PXDIR
1011
139.2571353155252
1021
9.2233720396894542E+020
1031
0.0
1021
98.083191590337236
1031
0.0
1002
}
1002
{
1000
PORI
1011
109.2571353155252
1021
9.2233720396894542E+020
1031
0.0
1021
98.083191590337236
1031
0.0
1002
}
1002
{
1000
PINS
1011
109.2571353155252
1021
9.2233720396894542E+020
1031
0.0
1021
98.083191590337236
1031
0.0
1002
}
1002
{
1000
PINS2
1011
139.2571353155252
1021
9.2233720396894542E+020
1031
0.0
1021
111.33319159033719
1031
0.0
1002
}
1002
{
1000
C
1070
     1
1002
}
1001
GENIUS_GENODEF_13
1002
{
1000
HIER
1070
     0
1002
}
1002
{
1000
MANEDIT
1070
     0
1002
}
1002
{
1000
NOSEL
1070
     0
1002
}
1002
{
1000
BEHIND
1070
     0
1002
}
1002
{
1000
REACTOR
1002
}
1001
GENIUS_GENOBJ-N-REC_13
1002
{
1000
OWNER
1000
GEN
1002
}
  0
LINE
  5
D1F
  8
FUSELAGE
 10
139.2571353155252
 20
101.08319159033719
 30
0.0
 11
139.2571353155252
 21
102.58319159033719
 31
0.0
1001
GENIUS_GENREC_14
1002
{
1000
PYDIR
1011
109.2571353155252
1021
9.2233720396894542E+020
1031
0.0
1021
106.95819159033719
1031
0.0
1002
}
1002
{
1000
PXDIR
1011
139.2571353155252
1021
9.2233720396894542E+020
1031
0.0
1021
93.708191590337236
1031
0.0
1002
}
1002
{
1000
PORI
1011
109.2571353155252
1021
9.2233720396894542E+020
1031
0.0
1021
93.708191590337236
1031
0.0
1002
}
1002
{
1000
PINS
1011
109.2571353155252
1021
9.2233720396894542E+020
1031
0.0
1021
93.708191590337236
1031
0.0
1002
}
1002
{
1000
PINS2
1011
139.2571353155252
1021
9.2233720396894542E+020
1031
0.0
1021
102.58319159033719
1031
0.0
1002
}
1002
{
1000
C
1070
     1
1002
}
1001
GENIUS_GENODEF_13
1002
{
1000
HIER
1070
     0
1002
}
1002
{
1000
MANEDIT
1070
     0
1002
}
1002
{
1000
NOSEL
1070
     0
1002
}
1002
{
1000
BEHIND
1070
     0
1002
}
1002
{
1000
REACTOR
1002
}
1001
GENIUS_GENOBJ-N-REC_13
1002
{
1000
OWNER
1000
GEN
1002
}
  0
LINE
  5
D27
  8
FUSELAGE
 10
126.36000209033649
 20
93.7395664256006
 30
0.0
 11
139.2849201009503
 21
97.92818173480741
 31
0.0
1001
GENIUS_GENREC_14
1002
{
1000
PYDIR
1011
109.2571353155252
1021
9.2233720396894542E+020
1031
0.0
1021
111.33319159033719
1031
0.0
1002
}
1002
{
1000
PXDIR
1011
139.2571353155252
1021
9.2233720396894542E+020
1031
0.0
1021
98.083191590337236
1031
0.0
1002
}
1002
{
1000
PORI
1011
109.2571353155252
1021
9.2233720396894542E+020
1031
0.0
1021
98.083191590337236
1031
0.0
1002
}
1002
{
1000
PINS
1011
109.2571353155252
1021
9.2233720396894542E+020
1031
0.0
1021
98.083191590337236
1031
0.0
1002
}
1002
{
1000
PINS2
1011
139.2571353155252
1021
9.2233720396894542E+020
1031
0.0
1021
111.33319159033719
1031
0.0
1002
}
1002
{
1000
C
1070
     1
1002
}
1001
GENIUS_GENODEF_13
1002
{
1000
HIER
1070
     0
1002
}
1002
{
1000
MANEDIT
1070
     0
1002
}
1002
{
1000
NOSEL
1070
     0
1002
}
1002
{
1000
BEHIND
1070
     0
1002
}
1002
{
1000
REACTOR
1002
}
1001
GENIUS_GENOBJ-N-REC_13
1002
{
1000
OWNER
1000
GEN
1002
}
  0
LINE
  5
D39
  8
FUSELAGE
 10
139.2571353155252
 20
98.083191590337236
 30
0.0
 11
139.2849201009503
 21
97.92818173480741
 31
0.0
1001
GENIUS_GENREC_14
1002
{
1000
PYDIR
1011
109.2571353155252
1021
9.2233720396894542E+020
1031
0.0
1021
111.33319159033719
1031
0.0
1002
}
1002
{
1000
PXDIR
1011
139.2571353155252
1021
9.2233720396894542E+020
1031
0.0
1021
98.083191590337236
1031
0.0
1002
}
1002
{
1000
PORI
1011
109.2571353155252
1021
9.2233720396894542E+020
1031
0.0
1021
98.083191590337236
1031
0.0
1002
}
1002
{
1000
PINS
1011
109.2571353155252
1021
9.2233720396894542E+020
1031
0.0
1021
98.083191590337236
1031
0.0
1002
}
1002
{
1000
PINS2
1011
139.2571353155252
1021
9.2233720396894542E+020
1031
0.0
1021
111.33319159033719
1031
0.0
1002
}
1002
{
1000
C
1070
     1
1002
}
1001
GENIUS_GENODEF_13
1002
{
1000
HIER
1070
     0
1002
}
1002
{
1000
MANEDIT
1070
     0
1002
}
1002
{
1000
NOSEL
1070
     0
1002
}
1002
{
1000
BEHIND
1070
     0
1002
}
1002
{
1000
REACTOR
1002
}
1001
GENIUS_GENOBJ-N-REC_13
1002
{
1000
OWNER
1000
GEN
1002
}
  0
LINE
  5
D3D
  8
FUSELAGE
 10
109.2571353155252
 20
103.95819159033719
 30
0.0
 11
112.7571353155252
 21
104.4767101088557
 31
0.0
1001
GENIUS_GENREC_14
1002
{
1000
PYDIR
1011
109.2571353155252
1021
9.2233720396894542E+020
1031
0.0
1021
90.708191590337236
1031
0.0
1002
}
1002
{
1000
PXDIR
1011
139.2571353155252
1021
9.2233720396894542E+020
1031
0.0
1021
103.95819159033719
1031
0.0
1002
}
1002
{
1000
PORI
1011
109.2571353155252
1021
9.2233720396894542E+020
1031
0.0
1021
103.95819159033719
1031
0.0
1002
}
1002
{
1000
PINS
1011
109.2571353155252
1021
9.2233720396894542E+020
1031
0.0
1021
103.95819159033719
1031
0.0
1002
}
1002
{
1000
PINS2
1011
139.2571353155252
1021
9.2233720396894542E+020
1031
0.0
1021
90.708191590337236
1031
0.0
1002
}
1002
{
1000
C
1070
     1
1002
}
1001
GENIUS_GENODEF_13
1002
{
1000
HIER
1070
     0
1002
}
1002
{
1000
MANEDIT
1070
     0
1002
}
1002
{
1000
NOSEL
1070
     0
1002
}
1002
{
1000
BEHIND
1070
     0
1002
}
1002
{
1000
REACTOR
1002
}
1001
GENIUS_GENOBJ-N-REC_13
1002
{
1000
OWNER
1000
GEN
1002
}
  0
LINE
  5
D3E
  8
FUSELAGE
 10
127.7571353155252
 20
104.6445123450542
 30
0.0
 11
139.2571353155252
 21
102.58319159033719
 31
0.0
1001
GENIUS_GENREC_14
1002
{
1000
PYDIR
1011
109.2571353155252
1021
9.2233720396894542E+020
1031
0.0
1021
89.333191590337236
1031
0.0
1002
}
1002
{
1000
PXDIR
1011
139.2571353155252
1021
9.2233720396894542E+020
1031
0.0
1021
102.58319159033719
1031
0.0
1002
}
1002
{
1000
PORI
1011
109.2571353155252
1021
9.2233720396894542E+020
1031
0.0
1021
102.58319159033719
1031
0.0
1002
}
1002
{
1000
PINS
1011
109.2571353155252
1021
9.2233720396894542E+020
1031
0.0
1021
102.58319159033719
1031
0.0
1002
}
1002
{
1000
PINS2
1011
139.2571353155252
1021
9.2233720396894542E+020
1031
0.0
1021
89.333191590337236
1031
0.0
1002
}
1002
{
1000
C
1070
     1
1002
}
1001
GENIUS_GENODEF_13
1002
{
1000
HIER
1070
     0
1002
}
1002
{
1000
MANEDIT
1070
     0
1002
}
1002
{
1000
NOSEL
1070
     0
1002
}
1002
{
1000
BEHIND
1070
     0
1002
}
1002
{
1000
REACTOR
1002
}
1001
GENIUS_GENOBJ-N-REC_13
1002
{
1000
OWNER
1000
GEN
1002
}
  0
LINE
  5
D3F
  8
FUSELAGE
  6
HIDDEN
 10
116.0071353155252
 20
104.95819159033719
 30
0.0
 11
126.0071353155252
 21
104.95819159033719
 31
0.0
1001
GENIUS_GENREC_14
1002
{
1000
PYDIR
1011
109.2571353155252
1021
9.2233720396894542E+020
1031
0.0
1021
91.708191590337236
1031
0.0
1002
}
1002
{
1000
PXDIR
1011
139.2571353155252
1021
9.2233720396894542E+020
1031
0.0
1021
104.95819159033719
1031
0.0
1002
}
1002
{
1000
PORI
1011
116.0071353155252
1021
9.2233720396894542E+020
1031
0.0
1021
104.95819159033719
1031
0.0
1002
}
1002
{
1000
PINS
1011
116.0071353155252
1021
9.2233720396894542E+020
1031
0.0
1021
104.95819159033719
1031
0.0
1002
}
1002
{
1000
PINS2
1011
139.2571353155252
1021
9.2233720396894542E+020
1031
0.0
1021
91.708191590337236
1031
0.0
1002
}
1002
{
1000
C
1070
     1
1002
}
1001
GENIUS_GENODEF_13
1002
{
1000
HIER
1070
     0
1002
}
1002
{
1000
MANEDIT
1070
     0
1002
}
1002
{
1000
NOSEL
1070
     0
1002
}
1002
{
1000
BEHIND
1070
     0
1002
}
1002
{
1000
REACTOR
1002
}
1001
GENIUS_GENOBJ-N-REC_13
1002
{
1000
OWNER
1000
GEN
1002
}
  0
LINE
  5
D47
  8
FUSELAGE
  6
PHANTOM2
 10
109.2340539014036
 20
104.1139911356579
 30
0.0
 11
115.9840539014036
 21
105.1139911356579
 31
0.0
1001
GENIUS_GENREC_14
1002
{
1000
PYDIR
1011
109.2571353155252
1021
9.2233720396894542E+020
1031
0.0
1021
90.708191590337236
1031
0.0
1002
}
1002
{
1000
PXDIR
1011
139.2571353155252
1021
9.2233720396894542E+020
1031
0.0
1021
103.95819159033719
1031
0.0
1002
}
1002
{
1000
PORI
1011
109.2571353155252
1021
9.2233720396894542E+020
1031
0.0
1021
103.95819159033719
1031
0.0
1002
}
1002
{
1000
PINS
1011
109.2571353155252
1021
9.2233720396894542E+020
1031
0.0
1021
103.95819159033719
1031
0.0
1002
}
1002
{
1000
PINS2
1011
139.2571353155252
1021
9.2233720396894542E+020
1031
0.0
1021
90.708191590337236
1031
0.0
1002
}
1002
{
1000
C
1070
     1
1002
}
1001
GENIUS_GENODEF_13
1002
{
1000
HIER
1070
     0
1002
}
1002
{
1000
MANEDIT
1070
     0
1002
}
1002
{
1000
NOSEL
1070
     0
1002
}
1002
{
1000
BEHIND
1070
     0
1002
}
1002
{
1000
REACTOR
1002
}
1001
GENIUS_GENOBJ-N-REC_13
1002
{
1000
OWNER
1000
GEN
1002
}
  0
LINE
  5
D4B
  8
FUSELAGE
  6
PHANTOM2
 10
126.0349235740416
 20
105.1132208220602
 30
0.0
 11
139.28492357404161
 21
102.7382208220602
 31
0.0
1001
GENIUS_GENREC_14
1002
{
1000
PYDIR
1011
109.2571353155252
1021
9.2233720396894542E+020
1031
0.0
1021
89.333191590337236
1031
0.0
1002
}
1002
{
1000
PXDIR
1011
139.2571353155252
1021
9.2233720396894542E+020
1031
0.0
1021
102.58319159033719
1031
0.0
1002
}
1002
{
1000
PORI
1011
109.2571353155252
1021
9.2233720396894542E+020
1031
0.0
1021
102.58319159033719
1031
0.0
1002
}
1002
{
1000
PINS
1011
109.2571353155252
1021
9.2233720396894542E+020
1031
0.0
1021
102.58319159033719
1031
0.0
1002
}
1002
{
1000
PINS2
1011
139.2571353155252
1021
9.2233720396894542E+020
1031
0.0
1021
89.333191590337236
1031
0.0
1002
}
1002
{
1000
C
1070
     1
1002
}
1001
GENIUS_GENODEF_13
1002
{
1000
HIER
1070
     0
1002
}
1002
{
1000
MANEDIT
1070
     0
1002
}
1002
{
1000
NOSEL
1070
     0
1002
}
1002
{
1000
BEHIND
1070
     0
1002
}
1002
{
1000
REACTOR
1002
}
1001
GENIUS_GENOBJ-N-REC_13
1002
{
1000
OWNER
1000
GEN
1002
}
  0
LINE
  5
D53
  8
FUSELAGE
 10
126.4155786073693
 20
107.2368752185198
 30
0.0
 11
139.31271183255799
 21
102.89325005378321
 31
0.0
1001
GENIUS_GENREC_14
1002
{
1000
PYDIR
1011
109.2571353155252
1021
9.2233720396894542E+020
1031
0.0
1021
89.333191590337236
1031
0.0
1002
}
1002
{
1000
PXDIR
1011
139.2571353155252
1021
9.2233720396894542E+020
1031
0.0
1021
102.58319159033719
1031
0.0
1002
}
1002
{
1000
PORI
1011
109.2571353155252
1021
9.2233720396894542E+020
1031
0.0
1021
102.58319159033719
1031
0.0
1002
}
1002
{
1000
PINS
1011
109.2571353155252
1021
9.2233720396894542E+020
1031
0.0
1021
102.58319159033719
1031
0.0
1002
}
1002
{
1000
PINS2
1011
139.2571353155252
1021
9.2233720396894542E+020
1031
0.0
1021
89.333191590337236
1031
0.0
1002
}
1002
{
1000
C
1070
     1
1002
}
1001
GENIUS_GENODEF_13
1002
{
1000
HIER
1070
     0
1002
}
1002
{
1000
MANEDIT
1070
     0
1002
}
1002
{
1000
NOSEL
1070
     0
1002
}
1002
{
1000
BEHIND
1070
     0
1002
}
1002
{
1000
REACTOR
1002
}
1001
GENIUS_GENOBJ-N-REC_13
1002
{
1000
OWNER
1000
GEN
1002
}
  0
LINE
  5
D5F
  8
FUSELAGE
 10
108.9409565792247
 20
106.0923980603657
 30
0.0
 11
115.6909565792247
 21
107.0923980603657
 31
0.0
1001
GENIUS_GENREC_14
1002
{
1000
PYDIR
1011
109.2571353155252
1021
9.2233720396894542E+020
1031
0.0
1021
90.708191590337236
1031
0.0
1002
}
1002
{
1000
PXDIR
1011
139.2571353155252
1021
9.2233720396894542E+020
1031
0.0
1021
103.95819159033719
1031
0.0
1002
}
1002
{
1000
PORI
1011
109.2571353155252
1021
9.2233720396894542E+020
1031
0.0
1021
103.95819159033719
1031
0.0
1002
}
1002
{
1000
PINS
1011
109.2571353155252
1021
9.2233720396894542E+020
1031
0.0
1021
103.95819159033719
1031
0.0
1002
}
1002
{
1000
PINS2
1011
139.2571353155252
1021
9.2233720396894542E+020
1031
0.0
1021
90.708191590337236
1031
0.0
1002
}
1002
{
1000
C
1070
     1
1002
}
1001
GENIUS_GENODEF_13
1002
{
1000
HIER
1070
     0
1002
}
1002
{
1000
MANEDIT
1070
     0
1002
}
1002
{
1000
NOSEL
1070
     0
1002
}
1002
{
1000
BEHIND
1070
     0
1002
}
1002
{
1000
REACTOR
1002
}
1001
GENIUS_GENOBJ-N-REC_13
1002
{
1000
OWNER
1000
GEN
1002
}
  0
LINE
  5
D60
  8
FUSELAGE
 10
108.9409565792247
 20
106.0923980603657
 30
0.0
 11
109.2571353155252
 21
103.95819159033719
 31
0.0
1001
GENIUS_GENREC_14
1002
{
1000
PYDIR
1011
106.0071353155252
1021
9.2233720396894542E+020
1031
0.0
1021
117.20819159033719
1031
0.0
1002
}
1002
{
1000
PXDIR
1011
136.0071353155252
1021
9.2233720396894542E+020
1031
0.0
1021
103.95819159033719
1031
0.0
1002
}
1002
{
1000
PORI
1011
108.9409565792247
1021
9.2233720396894542E+020
1031
0.0
1021
106.0923980603657
1031
0.0
1002
}
1002
{
1000
PINS
1011
108.9409565792247
1021
9.2233720396894542E+020
1031
0.0
1021
106.0923980603657
1031
0.0
1002
}
1002
{
1000
PINS2
1011
136.0071353155252
1021
9.2233720396894542E+020
1031
0.0
1021
117.20819159033719
1031
0.0
1002
}
1002
{
1000
C
1070
     1
1002
}
1001
GENIUS_GENODEF_13
1002
{
1000
HIER
1070
     0
1002
}
1002
{
1000
MANEDIT
1070
     0
1002
}
1002
{
1000
NOSEL
1070
     0
1002
}
1002
{
1000
BEHIND
1070
     0
1002
}
1002
{
1000
REACTOR
1002
}
1001
GENIUS_GENOBJ-N-REC_13
1002
{
1000
OWNER
1000
GEN
1002
}
  0
LINE
  5
D61
  8
FUSELAGE
 10
115.6909565792247
 20
107.0923980603657
 30
0.0
 11
116.0071353155252
 21
104.95819159033719
 31
0.0
1001
GENIUS_GENREC_14
1002
{
1000
PYDIR
1011
112.7571353155252
1021
9.2233720396894542E+020
1031
0.0
1021
118.20819159033719
1031
0.0
1002
}
1002
{
1000
PXDIR
1011
142.7571353155252
1021
9.2233720396894542E+020
1031
0.0
1021
104.95819159033719
1031
0.0
1002
}
1002
{
1000
PORI
1011
115.6909565792247
1021
9.2233720396894542E+020
1031
0.0
1021
107.0923980603657
1031
0.0
1002
}
1002
{
1000
PINS
1011
115.6909565792247
1021
9.2233720396894542E+020
1031
0.0
1021
107.0923980603657
1031
0.0
1002
}
1002
{
1000
PINS2
1011
142.7571353155252
1021
9.2233720396894542E+020
1031
0.0
1021
118.20819159033719
1031
0.0
1002
}
1002
{
1000
C
1070
     1
1002
}
1001
GENIUS_GENODEF_13
1002
{
1000
HIER
1070
     0
1002
}
1002
{
1000
MANEDIT
1070
     0
1002
}
1002
{
1000
NOSEL
1070
     0
1002
}
1002
{
1000
BEHIND
1070
     0
1002
}
1002
{
1000
REACTOR
1002
}
1001
GENIUS_GENOBJ-N-REC_13
1002
{
1000
OWNER
1000
GEN
1002
}
  0
LINE
  5
D62
  8
FUSELAGE
 10
126.4155786073693
 20
107.2368752185198
 30
0.0
 11
126.0071353155252
 21
104.95819159033719
 31
0.0
1001
GENIUS_GENREC_14
1002
{
1000
PYDIR
1011
122.7571353155252
1021
9.2233720396894542E+020
1031
0.0
1021
118.20819159033719
1031
0.0
1002
}
1002
{
1000
PXDIR
1011
152.7571353155252
1021
9.2233720396894542E+020
1031
0.0
1021
104.95819159033719
1031
0.0
1002
}
1002
{
1000
PORI
1011
126.4155786073693
1021
9.2233720396894542E+020
1031
0.0
1021
107.2368752185198
1031
0.0
1002
}
1002
{
1000
PINS
1011
126.4155786073693
1021
9.2233720396894542E+020
1031
0.0
1021
107.2368752185198
1031
0.0
1002
}
1002
{
1000
PINS2
1011
152.7571353155252
1021
9.2233720396894542E+020
1031
0.0
1021
118.20819159033719
1031
0.0
1002
}
1002
{
1000
C
1070
     1
1002
}
1001
GENIUS_GENODEF_13
1002
{
1000
HIER
1070
     0
1002
}
1002
{
1000
MANEDIT
1070
     0
1002
}
1002
{
1000
NOSEL
1070
     0
1002
}
1002
{
1000
BEHIND
1070
     0
1002
}
1002
{
1000
REACTOR
1002
}
1001
GENIUS_GENOBJ-N-REC_13
1002
{
1000
OWNER
1000
GEN
1002
}
  0
LINE
  5
D63
  8
FUSELAGE
 10
139.2571353155252
 20
102.58319159033719
 30
0.0
 11
139.31271183255799
 21
102.89325005378321
 31
0.0
1001
GENIUS_GENREC_14
1002
{
1000
PYDIR
1011
109.6655786073692
1021
9.2233720396894542E+020
1031
0.0
1021
109.2368752185198
1031
0.0
1002
}
1002
{
1000
PXDIR
1011
139.66557860736921
1021
9.2233720396894542E+020
1031
0.0
1021
95.98687521851987
1031
0.0
1002
}
1002
{
1000
PORI
1011
109.6655786073692
1021
9.2233720396894542E+020
1031
0.0
1021
95.98687521851987
1031
0.0
1002
}
1002
{
1000
PINS
1011
109.6655786073692
1021
9.2233720396894542E+020
1031
0.0
1021
95.98687521851987
1031
0.0
1002
}
1002
{
1000
PINS2
1011
139.31271183255799
1021
9.2233720396894542E+020
1031
0.0
1021
102.89325005378321
1031
0.0
1002
}
1002
{
1000
C
1070
     1
1002
}
1001
GENIUS_GENODEF_13
1002
{
1000
HIER
1070
     0
1002
}
1002
{
1000
MANEDIT
1070
     0
1002
}
1002
{
1000
NOSEL
1070
     0
1002
}
1002
{
1000
BEHIND
1070
     0
1002
}
1002
{
1000
REACTOR
1002
}
1001
GENIUS_GENOBJ-N-REC_13
1002
{
1000
OWNER
1000
GEN
1002
}
  0
LINE
  5
D64
  8
FUSELAGE
  6
HIDDEN
 10
112.5071353155252
 20
98.708191590337236
 30
0.0
 11
112.5071353155252
 21
96.226710108855755
 31
0.0
1001
GENIUS_GENREC_14
1002
{
1000
PYDIR
1011
112.5071353155252
1021
9.2233720396894542E+020
1031
0.0
1021
103.70819159033719
1031
0.0
1002
}
1002
{
1000
PXDIR
1011
142.5071353155252
1021
9.2233720396894542E+020
1031
0.0
1021
90.458191590337236
1031
0.0
1002
}
1002
{
1000
PORI
1011
112.5071353155252
1021
9.2233720396894542E+020
1031
0.0
1021
90.458191590337236
1031
0.0
1002
}
1002
{
1000
PINS
1011
112.5071353155252
1021
9.2233720396894542E+020
1031
0.0
1021
90.458191590337236
1031
0.0
1002
}
1002
{
1000
PINS2
1011
142.5071353155252
1021
9.2233720396894542E+020
1031
0.0
1021
103.70819159033719
1031
0.0
1002
}
1002
{
1000
C
1070
     1
1002
}
1001
GENIUS_GENODEF_13
1002
{
1000
HIER
1070
     0
1002
}
1002
{
1000
MANEDIT
1070
     0
1002
}
1002
{
1000
NOSEL
1070
     0
1002
}
1002
{
1000
BEHIND
1070
     0
1002
}
1002
{
1000
REACTOR
1002
}
1001
GENIUS_GENOBJ-N-REC_13
1002
{
1000
OWNER
1000
GEN
1002
}
  0
LINE
  5
D6C
  8
FUSELAGE
  6
HIDDEN
 10
112.7571353155252
 20
100.33319159033719
 30
0.0
 11
112.7571353155252
 21
96.833211276337224
 31
0.0
1001
GENIUS_GENREC_14
1002
{
1000
PYDIR
1011
112.5071353155252
1021
9.2233720396894542E+020
1031
0.0
1021
103.70819159033719
1031
0.0
1002
}
1002
{
1000
PXDIR
1011
142.5071353155252
1021
9.2233720396894542E+020
1031
0.0
1021
90.458191590337236
1031
0.0
1002
}
1002
{
1000
PORI
1011
112.5071353155252
1021
9.2233720396894542E+020
1031
0.0
1021
90.458191590337236
1031
0.0
1002
}
1002
{
1000
PINS
1011
112.5071353155252
1021
9.2233720396894542E+020
1031
0.0
1021
90.458191590337236
1031
0.0
1002
}
1002
{
1000
PINS2
1011
142.5071353155252
1021
9.2233720396894542E+020
1031
0.0
1021
103.70819159033719
1031
0.0
1002
}
1002
{
1000
C
1070
     1
1002
}
1001
GENIUS_GENODEF_13
1002
{
1000
HIER
1070
     0
1002
}
1002
{
1000
MANEDIT
1070
     0
1002
}
1002
{
1000
NOSEL
1070
     0
1002
}
1002
{
1000
BEHIND
1070
     0
1002
}
1002
{
1000
REACTOR
1002
}
1001
GENIUS_GENOBJ-N-REC_13
1002
{
1000
OWNER
1000
GEN
1002
}
  0
LINE
  5
D6D
  8
FUSELAGE
  6
HIDDEN
 10
112.7571353155252
 20
100.33319159033719
 30
0.0
 11
112.7571353155252
 21
103.83319159033719
 31
0.0
1001
GENIUS_GENREC_14
1002
{
1000
PYDIR
1011
112.5071353155252
1021
9.2233720396894542E+020
1031
0.0
1021
96.95819159033725
1031
0.0
1002
}
1002
{
1000
PXDIR
1011
142.5071353155252
1021
9.2233720396894542E+020
1031
0.0
1021
110.20819159033719
1031
0.0
1002
}
1002
{
1000
PORI
1011
112.5071353155252
1021
9.2233720396894542E+020
1031
0.0
1021
110.20819159033719
1031
0.0
1002
}
1002
{
1000
PINS
1011
112.5071353155252
1021
9.2233720396894542E+020
1031
0.0
1021
110.20819159033719
1031
0.0
1002
}
1002
{
1000
PINS2
1011
142.5071353155252
1021
9.2233720396894542E+020
1031
0.0
1021
96.95819159033725
1031
0.0
1002
}
1002
{
1000
C
1070
     1
1002
}
1001
GENIUS_GENODEF_13
1002
{
1000
HIER
1070
     0
1002
}
1002
{
1000
MANEDIT
1070
     0
1002
}
1002
{
1000
NOSEL
1070
     0
1002
}
1002
{
1000
BEHIND
1070
     0
1002
}
1002
{
1000
REACTOR
1002
}
1001
GENIUS_GENOBJ-N-REC_13
1002
{
1000
OWNER
1000
GEN
1002
}
  0
LINE
  5
D6E
  8
FUSELAGE
  6
HIDDEN
 10
112.5071353155252
 20
101.95819159033719
 30
0.0
 11
112.5071353155252
 21
104.4396730718187
 31
0.0
1001
GENIUS_GENREC_14
1002
{
1000
PYDIR
1011
112.5071353155252
1021
9.2233720396894542E+020
1031
0.0
1021
96.95819159033725
1031
0.0
1002
}
1002
{
1000
PXDIR
1011
142.5071353155252
1021
9.2233720396894542E+020
1031
0.0
1021
110.20819159033719
1031
0.0
1002
}
1002
{
1000
PORI
1011
112.5071353155252
1021
9.2233720396894542E+020
1031
0.0
1021
110.20819159033719
1031
0.0
1002
}
1002
{
1000
PINS
1011
112.5071353155252
1021
9.2233720396894542E+020
1031
0.0
1021
110.20819159033719
1031
0.0
1002
}
1002
{
1000
PINS2
1011
142.5071353155252
1021
9.2233720396894542E+020
1031
0.0
1021
96.95819159033725
1031
0.0
1002
}
1002
{
1000
C
1070
     1
1002
}
1001
GENIUS_GENODEF_13
1002
{
1000
HIER
1070
     0
1002
}
1002
{
1000
MANEDIT
1070
     0
1002
}
1002
{
1000
NOSEL
1070
     0
1002
}
1002
{
1000
BEHIND
1070
     0
1002
}
1002
{
1000
REACTOR
1002
}
1001
GENIUS_GENOBJ-N-REC_13
1002
{
1000
OWNER
1000
GEN
1002
}
  0
LINE
  5
D6F
  8
FUSELAGE
  6
HIDDEN
 10
126.0071353155252
 20
98.708191590337222
 30
0.0
 11
126.0071353155252
 21
95.708191590337236
 31
0.0
1001
GENIUS_GENREC_14
1002
{
1000
PYDIR
1011
125.7571353155252
1021
9.2233720396894542E+020
1031
0.0
1021
103.1896730718186
1031
0.0
1002
}
1002
{
1000
PXDIR
1011
155.75713531552509
1021
9.2233720396894542E+020
1031
0.0
1021
89.939673071818703
1031
0.0
1002
}
1002
{
1000
PORI
1011
125.7571353155252
1021
9.2233720396894542E+020
1031
0.0
1021
89.939673071818703
1031
0.0
1002
}
1002
{
1000
PINS
1011
125.7571353155252
1021
9.2233720396894542E+020
1031
0.0
1021
89.939673071818703
1031
0.0
1002
}
1002
{
1000
PINS2
1011
155.75713531552509
1021
9.2233720396894542E+020
1031
0.0
1021
103.1896730718186
1031
0.0
1002
}
1002
{
1000
C
1070
     1
1002
}
1001
GENIUS_GENODEF_13
1002
{
1000
HIER
1070
     0
1002
}
1002
{
1000
MANEDIT
1070
     0
1002
}
1002
{
1000
NOSEL
1070
     0
1002
}
1002
{
1000
BEHIND
1070
     0
1002
}
1002
{
1000
REACTOR
1002
}
1001
GENIUS_GENOBJ-N-REC_13
1002
{
1000
OWNER
1000
GEN
1002
}
  0
LINE
  5
D70
  8
WING
  6
PHANTOM2
 10
112.5071353155252
 20
98.708191590337222
 30
0.0
 11
126.0071353155252
 21
98.708191590337222
 31
0.0
1001
GENIUS_GENREC_14
1002
{
1000
PYDIR
1011
109.2571353155252
1021
9.2233720396894542E+020
1031
0.0
1021
111.95819159033719
1031
0.0
1002
}
1002
{
1000
PXDIR
1011
139.2571353155252
1021
9.2233720396894542E+020
1031
0.0
1021
98.708191590337236
1031
0.0
1002
}
1002
{
1000
PORI
1011
109.2571353155252
1021
9.2233720396894542E+020
1031
0.0
1021
98.708191590337236
1031
0.0
1002
}
1002
{
1000
PINS
1011
109.2571353155252
1021
9.2233720396894542E+020
1031
0.0
1021
98.708191590337236
1031
0.0
1002
}
1002
{
1000
PINS2
1011
139.2571353155252
1021
9.2233720396894542E+020
1031
0.0
1021
111.95819159033719
1031
0.0
1002
}
1002
{
1000
C
1070
     1
1002
}
1001
GENIUS_GENODEF_13
1002
{
1000
HIER
1070
     0
1002
}
1002
{
1000
MANEDIT
1070
     0
1002
}
1002
{
1000
NOSEL
1070
     0
1002
}
1002
{
1000
BEHIND
1070
     0
1002
}
1002
{
1000
REACTOR
1002
}
1001
GENIUS_GENOBJ-N-REC_13
1002
{
1000
OWNER
1000
GEN
1002
}
  0
LINE
  5
D71
  8
FUSELAGE
  6
HIDDEN
 10
126.2571353155252
 20
98.708191590337222
 30
0.0
 11
126.2571353155252
 21
95.753002911091954
 31
0.0
1001
GENIUS_GENREC_14
1002
{
1000
PYDIR
1011
126.0071353155252
1021
9.2233720396894542E+020
1031
0.0
1021
103.1896730718186
1031
0.0
1002
}
1002
{
1000
PXDIR
1011
156.0071353155252
1021
9.2233720396894542E+020
1031
0.0
1021
89.939673071818703
1031
0.0
1002
}
1002
{
1000
PORI
1011
126.0071353155252
1021
9.2233720396894542E+020
1031
0.0
1021
89.939673071818703
1031
0.0
1002
}
1002
{
1000
PINS
1011
126.0071353155252
1021
9.2233720396894542E+020
1031
0.0
1021
89.939673071818703
1031
0.0
1002
}
1002
{
1000
PINS2
1011
156.0071353155252
1021
9.2233720396894542E+020
1031
0.0
1021
103.1896730718186
1031
0.0
1002
}
1002
{
1000
C
1070
     1
1002
}
1001
GENIUS_GENODEF_13
1002
{
1000
HIER
1070
     0
1002
}
1002
{
1000
MANEDIT
1070
     0
1002
}
1002
{
1000
NOSEL
1070
     0
1002
}
1002
{
1000
BEHIND
1070
     0
1002
}
1002
{
1000
REACTOR
1002
}
1001
GENIUS_GENOBJ-N-REC_13
1002
{
1000
OWNER
1000
GEN
1002
}
  0
LINE
  5
D72
  8
FUSELAGE
  6
PHANTOM2
 10
126.0071353155252
 20
98.708191590337222
 30
0.0
 11
134.2571353155252
 21
99.583191590337236
 31
0.0
1001
GENIUS_GENREC_14
1002
{
1000
PYDIR
1011
109.2571353155252
1021
9.2233720396894542E+020
1031
0.0
1021
114.33319159033719
1031
0.0
1002
}
1002
{
1000
PXDIR
1011
134.2571353155252
1021
9.2233720396894542E+020
1031
0.0
1021
99.583191590337236
1031
0.0
1002
}
1002
{
1000
PORI
1011
109.2571353155252
1021
9.2233720396894542E+020
1031
0.0
1021
101.08319159033719
1031
0.0
1002
}
1002
{
1000
PINS
1011
109.2571353155252
1021
9.2233720396894542E+020
1031
0.0
1021
101.08319159033719
1031
0.0
1002
}
1002
{
1000
PINS2
1011
139.2571353155252
1021
9.2233720396894542E+020
1031
0.0
1021
114.33319159033719
1031
0.0
1002
}
1002
{
1000
C
1070
     1
1002
}
1001
GENIUS_GENODEF_13
1002
{
1000
HIER
1070
     0
1002
}
1002
{
1000
MANEDIT
1070
     0
1002
}
1002
{
1000
NOSEL
1070
     0
1002
}
1002
{
1000
BEHIND
1070
     0
1002
}
1002
{
1000
REACTOR
1002
}
1001
GENIUS_GENOBJ-N-REC_13
1002
{
1000
OWNER
1000
GEN
1002
}
  0
LINE
  5
D73
  8
FUSELAGE
  6
PHANTOM2
 10
126.0071353155252
 20
101.95819159033719
 30
0.0
 11
134.2571353155252
 21
101.08319159033719
 31
0.0
1001
GENIUS_GENREC_14
1002
{
1000
PYDIR
1011
109.2571353155252
1021
9.2233720396894542E+020
1031
0.0
1021
86.333191590337236
1031
0.0
1002
}
1002
{
1000
PXDIR
1011
134.2571353155252
1021
9.2233720396894542E+020
1031
0.0
1021
101.08319159033719
1031
0.0
1002
}
1002
{
1000
PORI
1011
109.2571353155252
1021
9.2233720396894542E+020
1031
0.0
1021
99.583191590337236
1031
0.0
1002
}
1002
{
1000
PINS
1011
109.2571353155252
1021
9.2233720396894542E+020
1031
0.0
1021
99.583191590337236
1031
0.0
1002
}
1002
{
1000
PINS2
1011
139.2571353155252
1021
9.2233720396894542E+020
1031
0.0
1021
86.333191590337236
1031
0.0
1002
}
1002
{
1000
C
1070
     1
1002
}
1001
GENIUS_GENODEF_13
1002
{
1000
HIER
1070
     0
1002
}
1002
{
1000
MANEDIT
1070
     0
1002
}
1002
{
1000
NOSEL
1070
     0
1002
}
1002
{
1000
BEHIND
1070
     0
1002
}
1002
{
1000
REACTOR
1002
}
1001
GENIUS_GENOBJ-N-REC_13
1002
{
1000
OWNER
1000
GEN
1002
}
  0
LINE
  5
D74
  8
FUSELAGE
  6
HIDDEN
 10
126.2571353155252
 20
101.95819159033719
 30
0.0
 11
126.2571353155252
 21
104.9133802695825
 31
0.0
1001
GENIUS_GENREC_14
1002
{
1000
PYDIR
1011
126.0071353155252
1021
9.2233720396894542E+020
1031
0.0
1021
97.476710108855769
1031
0.0
1002
}
1002
{
1000
PXDIR
1011
156.0071353155252
1021
9.2233720396894542E+020
1031
0.0
1021
110.7267101088557
1031
0.0
1002
}
1002
{
1000
PORI
1011
126.0071353155252
1021
9.2233720396894542E+020
1031
0.0
1021
110.7267101088557
1031
0.0
1002
}
1002
{
1000
PINS
1011
126.0071353155252
1021
9.2233720396894542E+020
1031
0.0
1021
110.7267101088557
1031
0.0
1002
}
1002
{
1000
PINS2
1011
156.0071353155252
1021
9.2233720396894542E+020
1031
0.0
1021
97.476710108855769
1031
0.0
1002
}
1002
{
1000
C
1070
     1
1002
}
1001
GENIUS_GENODEF_13
1002
{
1000
HIER
1070
     0
1002
}
1002
{
1000
MANEDIT
1070
     0
1002
}
1002
{
1000
NOSEL
1070
     0
1002
}
1002
{
1000
BEHIND
1070
     0
1002
}
1002
{
1000
REACTOR
1002
}
1001
GENIUS_GENOBJ-N-REC_13
1002
{
1000
OWNER
1000
GEN
1002
}
  0
LINE
  5
D75
  8
FUSELAGE
  6
HIDDEN
 10
126.0071353155252
 20
101.95819159033719
 30
0.0
 11
126.0071353155252
 21
104.95819159033719
 31
0.0
1001
GENIUS_GENREC_14
1002
{
1000
PYDIR
1011
125.7571353155252
1021
9.2233720396894542E+020
1031
0.0
1021
97.476710108855769
1031
0.0
1002
}
1002
{
1000
PXDIR
1011
155.75713531552509
1021
9.2233720396894542E+020
1031
0.0
1021
110.7267101088557
1031
0.0
1002
}
1002
{
1000
PORI
1011
125.7571353155252
1021
9.2233720396894542E+020
1031
0.0
1021
110.7267101088557
1031
0.0
1002
}
1002
{
1000
PINS
1011
125.7571353155252
1021
9.2233720396894542E+020
1031
0.0
1021
110.7267101088557
1031
0.0
1002
}
1002
{
1000
PINS2
1011
155.75713531552509
1021
9.2233720396894542E+020
1031
0.0
1021
97.476710108855769
1031
0.0
1002
}
1002
{
1000
C
1070
     1
1002
}
1001
GENIUS_GENODEF_13
1002
{
1000
HIER
1070
     0
1002
}
1002
{
1000
MANEDIT
1070
     0
1002
}
1002
{
1000
NOSEL
1070
     0
1002
}
1002
{
1000
BEHIND
1070
     0
1002
}
1002
{
1000
REACTOR
1002
}
1001
GENIUS_GENOBJ-N-REC_13
1002
{
1000
OWNER
1000
GEN
1002
}
  0
LINE
  5
D95
  8
WING
 62
     8
 10
112.5071353155252
 20
100.25445143333719
 30
0.0
 11
134.2571353155252
 21
100.25445143333719
 31
0.0
1001
GENIUS_GENREC_14
1002
{
1000
PYDIR
1011
109.2571353155252
1021
9.2233720396894542E+020
1031
0.0
1021
112.4020892283372
1031
0.0
1002
}
1002
{
1000
PXDIR
1011
139.2571353155252
1021
9.2233720396894542E+020
1031
0.0
1021
99.152089228337246
1031
0.0
1002
}
1002
{
1000
PORI
1011
109.2571353155252
1021
9.2233720396894542E+020
1031
0.0
1021
99.152089228337246
1031
0.0
1002
}
1002
{
1000
PINS
1011
109.2571353155252
1021
9.2233720396894542E+020
1031
0.0
1021
99.152089228337246
1031
0.0
1002
}
1002
{
1000
PINS2
1011
139.2571353155252
1021
9.2233720396894542E+020
1031
0.0
1021
112.4020892283372
1031
0.0
1002
}
1002
{
1000
C
1070
     1
1002
}
1001
GENIUS_GENODEF_13
1002
{
1000
HIER
1070
     0
1002
}
1002
{
1000
MANEDIT
1070
     0
1002
}
1002
{
1000
NOSEL
1070
     0
1002
}
1002
{
1000
BEHIND
1070
     0
1002
}
1002
{
1000
REACTOR
1002
}
1001
GENIUS_GENOBJ-N-REC_13
1002
{
1000
OWNER
1000
GEN
1002
}
  0
LINE
  5
D96
  8
WING
  6
PHANTOM2
 10
112.5071353155252
 20
101.95819159033719
 30
0.0
 11
126.0071353155252
 21
101.95819159033719
 31
0.0
1001
GENIUS_GENREC_14
1002
{
1000
PYDIR
1011
109.2571353155252
1021
9.2233720396894542E+020
1031
0.0
1021
114.1058293853372
1031
0.0
1002
}
1002
{
1000
PXDIR
1011
139.2571353155252
1021
9.2233720396894542E+020
1031
0.0
1021
100.8558293853372
1031
0.0
1002
}
1002
{
1000
PORI
1011
109.2571353155252
1021
9.2233720396894542E+020
1031
0.0
1021
100.8558293853372
1031
0.0
1002
}
1002
{
1000
PINS
1011
109.2571353155252
1021
9.2233720396894542E+020
1031
0.0
1021
100.8558293853372
1031
0.0
1002
}
1002
{
1000
PINS2
1011
139.2571353155252
1021
9.2233720396894542E+020
1031
0.0
1021
114.1058293853372
1031
0.0
1002
}
1002
{
1000
C
1070
     1
1002
}
1001
GENIUS_GENODEF_13
1002
{
1000
HIER
1070
     0
1002
}
1002
{
1000
MANEDIT
1070
     0
1002
}
1002
{
1000
NOSEL
1070
     0
1002
}
1002
{
1000
BEHIND
1070
     0
1002
}
1002
{
1000
REACTOR
1002
}
1001
GENIUS_GENOBJ-N-REC_13
1002
{
1000
OWNER
1000
GEN
1002
}
  0
LINE
  5
D9E
  8
FUSELAGE
  6
HIDDEN
 62
     8
 10
126.0071353155252
 20
100.0969514333372
 30
0.0
 11
134.2571353155252
 21
100.0969514333372
 31
0.0
1001
GENIUS_GENREC_14
1002
{
1000
PYDIR
1011
109.2571353155252
1021
9.2233720396894542E+020
1031
0.0
1021
112.4020892283372
1031
0.0
1002
}
1002
{
1000
PXDIR
1011
139.2571353155252
1021
9.2233720396894542E+020
1031
0.0
1021
99.152089228337246
1031
0.0
1002
}
1002
{
1000
PORI
1011
109.2571353155252
1021
9.2233720396894542E+020
1031
0.0
1021
99.152089228337246
1031
0.0
1002
}
1002
{
1000
PINS
1011
109.2571353155252
1021
9.2233720396894542E+020
1031
0.0
1021
99.152089228337246
1031
0.0
1002
}
1002
{
1000
PINS2
1011
139.2571353155252
1021
9.2233720396894542E+020
1031
0.0
1021
112.4020892283372
1031
0.0
1002
}
1002
{
1000
C
1070
     1
1002
}
1001
GENIUS_GENODEF_13
1002
{
1000
HIER
1070
     0
1002
}
1002
{
1000
MANEDIT
1070
     0
1002
}
1002
{
1000
NOSEL
1070
     0
1002
}
1002
{
1000
BEHIND
1070
     0
1002
}
1002
{
1000
REACTOR
1002
}
1001
GENIUS_GENOBJ-N-REC_13
1002
{
1000
OWNER
1000
GEN
1002
}
  0
LINE
  5
DA2
  8
WING
  6
HIDDEN
 62
     8
 10
112.5071353155252
 20
99.939451433337254
 30
0.0
 11
134.2571353155252
 21
99.939451433337254
 31
0.0
1001
GENIUS_GENREC_14
1002
{
1000
PYDIR
1011
109.2571353155252
1021
9.2233720396894542E+020
1031
0.0
1021
112.4020892283372
1031
0.0
1002
}
1002
{
1000
PXDIR
1011
139.2571353155252
1021
9.2233720396894542E+020
1031
0.0
1021
99.152089228337246
1031
0.0
1002
}
1002
{
1000
PORI
1011
109.2571353155252
1021
9.2233720396894542E+020
1031
0.0
1021
99.152089228337246
1031
0.0
1002
}
1002
{
1000
PINS
1011
109.2571353155252
1021
9.2233720396894542E+020
1031
0.0
1021
99.152089228337246
1031
0.0
1002
}
1002
{
1000
PINS2
1011
139.2571353155252
1021
9.2233720396894542E+020
1031
0.0
1021
112.4020892283372
1031
0.0
1002
}
1002
{
1000
C
1070
     1
1002
}
1001
GENIUS_GENODEF_13
1002
{
1000
HIER
1070
     0
1002
}
1002
{
1000
MANEDIT
1070
     0
1002
}
1002
{
1000
NOSEL
1070
     0
1002
}
1002
{
1000
BEHIND
1070
     0
1002
}
1002
{
1000
REACTOR
1002
}
1001
GENIUS_GENOBJ-N-REC_13
1002
{
1000
OWNER
1000
GEN
1002
}
  0
LINE
  5
DA6
  8
WING
  6
HIDDEN
 62
     8
 10
112.5071353155252
 20
99.781951433337241
 30
0.0
 11
134.2571353155252
 21
99.781951433337241
 31
0.0
1001
GENIUS_GENREC_14
1002
{
1000
PYDIR
1011
109.2571353155252
1021
9.2233720396894542E+020
1031
0.0
1021
112.4020892283372
1031
0.0
1002
}
1002
{
1000
PXDIR
1011
139.2571353155252
1021
9.2233720396894542E+020
1031
0.0
1021
99.152089228337246
1031
0.0
1002
}
1002
{
1000
PORI
1011
109.2571353155252
1021
9.2233720396894542E+020
1031
0.0
1021
99.152089228337246
1031
0.0
1002
}
1002
{
1000
PINS
1011
109.2571353155252
1021
9.2233720396894542E+020
1031
0.0
1021
99.152089228337246
1031
0.0
1002
}
1002
{
1000
PINS2
1011
139.2571353155252
1021
9.2233720396894542E+020
1031
0.0
1021
112.4020892283372
1031
0.0
1002
}
1002
{
1000
C
1070
     1
1002
}
1001
GENIUS_GENODEF_13
1002
{
1000
HIER
1070
     0
1002
}
1002
{
1000
MANEDIT
1070
     0
1002
}
1002
{
1000
NOSEL
1070
     0
1002
}
1002
{
1000
BEHIND
1070
     0
1002
}
1002
{
1000
REACTOR
1002
}
1001
GENIUS_GENOBJ-N-REC_13
1002
{
1000
OWNER
1000
GEN
1002
}
  0
LINE
  5
DAA
  8
WING
  6
HIDDEN
 62
     8
 10
112.5071353155252
 20
99.624451433337242
 30
0.0
 11
134.2571353155252
 21
99.624451433337256
 31
0.0
1001
GENIUS_GENREC_14
1002
{
1000
PYDIR
1011
109.2571353155252
1021
9.2233720396894542E+020
1031
0.0
1021
112.4020892283372
1031
0.0
1002
}
1002
{
1000
PXDIR
1011
139.2571353155252
1021
9.2233720396894542E+020
1031
0.0
1021
99.152089228337246
1031
0.0
1002
}
1002
{
1000
PORI
1011
109.2571353155252
1021
9.2233720396894542E+020
1031
0.0
1021
99.152089228337246
1031
0.0
1002
}
1002
{
1000
PINS
1011
109.2571353155252
1021
9.2233720396894542E+020
1031
0.0
1021
99.152089228337246
1031
0.0
1002
}
1002
{
1000
PINS2
1011
139.2571353155252
1021
9.2233720396894542E+020
1031
0.0
1021
112.4020892283372
1031
0.0
1002
}
1002
{
1000
C
1070
     1
1002
}
1001
GENIUS_GENODEF_13
1002
{
1000
HIER
1070
     0
1002
}
1002
{
1000
MANEDIT
1070
     0
1002
}
1002
{
1000
NOSEL
1070
     0
1002
}
1002
{
1000
BEHIND
1070
     0
1002
}
1002
{
1000
REACTOR
1002
}
1001
GENIUS_GENOBJ-N-REC_13
1002
{
1000
OWNER
1000
GEN
1002
}
  0
LINE
  5
DAE
  8
WING
  6
HIDDEN
 62
     8
 10
112.5071353155252
 20
99.466951433337243
 30
0.0
 11
133.16115669238249
 21
99.466951433337243
 31
0.0
1001
GENIUS_GENREC_14
1002
{
1000
PYDIR
1011
109.2571353155252
1021
9.2233720396894542E+020
1031
0.0
1021
112.4020892283372
1031
0.0
1002
}
1002
{
1000
PXDIR
1011
139.2571353155252
1021
9.2233720396894542E+020
1031
0.0
1021
99.152089228337246
1031
0.0
1002
}
1002
{
1000
PORI
1011
109.2571353155252
1021
9.2233720396894542E+020
1031
0.0
1021
99.152089228337246
1031
0.0
1002
}
1002
{
1000
PINS
1011
109.2571353155252
1021
9.2233720396894542E+020
1031
0.0
1021
99.152089228337246
1031
0.0
1002
}
1002
{
1000
PINS2
1011
139.2571353155252
1021
9.2233720396894542E+020
1031
0.0
1021
112.4020892283372
1031
0.0
1002
}
1002
{
1000
C
1070
     1
1002
}
1001
GENIUS_GENODEF_13
1002
{
1000
HIER
1070
     0
1002
}
1002
{
1000
MANEDIT
1070
     0
1002
}
1002
{
1000
NOSEL
1070
     0
1002
}
1002
{
1000
BEHIND
1070
     0
1002
}
1002
{
1000
REACTOR
1002
}
1001
GENIUS_GENOBJ-N-REC_13
1002
{
1000
OWNER
1000
GEN
1002
}
  0
LINE
  5
DB2
  8
WING
  6
HIDDEN
 62
     8
 10
112.5071353155252
 20
99.309451433337244
 30
0.0
 11
131.67615669238251
 21
99.30945143333723
 31
0.0
1001
GENIUS_GENREC_14
1002
{
1000
PYDIR
1011
109.2571353155252
1021
9.2233720396894542E+020
1031
0.0
1021
112.4020892283372
1031
0.0
1002
}
1002
{
1000
PXDIR
1011
139.2571353155252
1021
9.2233720396894542E+020
1031
0.0
1021
99.152089228337246
1031
0.0
1002
}
1002
{
1000
PORI
1011
109.2571353155252
1021
9.2233720396894542E+020
1031
0.0
1021
99.152089228337246
1031
0.0
1002
}
1002
{
1000
PINS
1011
109.2571353155252
1021
9.2233720396894542E+020
1031
0.0
1021
99.152089228337246
1031
0.0
1002
}
1002
{
1000
PINS2
1011
139.2571353155252
1021
9.2233720396894542E+020
1031
0.0
1021
112.4020892283372
1031
0.0
1002
}
1002
{
1000
C
1070
     1
1002
}
1001
GENIUS_GENODEF_13
1002
{
1000
HIER
1070
     0
1002
}
1002
{
1000
MANEDIT
1070
     0
1002
}
1002
{
1000
NOSEL
1070
     0
1002
}
1002
{
1000
BEHIND
1070
     0
1002
}
1002
{
1000
REACTOR
1002
}
1001
GENIUS_GENOBJ-N-REC_13
1002
{
1000
OWNER
1000
GEN
1002
}
  0
LINE
  5
DB6
  8
WING
  6
HIDDEN
 62
     8
 10
112.5071353155252
 20
99.151951433337246
 30
0.0
 11
130.19115669238249
 21
99.151951433337246
 31
0.0
1001
GENIUS_GENREC_14
1002
{
1000
PYDIR
1011
109.2571353155252
1021
9.2233720396894542E+020
1031
0.0
1021
112.4020892283372
1031
0.0
1002
}
1002
{
1000
PXDIR
1011
139.2571353155252
1021
9.2233720396894542E+020
1031
0.0
1021
99.152089228337246
1031
0.0
1002
}
1002
{
1000
PORI
1011
109.2571353155252
1021
9.2233720396894542E+020
1031
0.0
1021
99.152089228337246
1031
0.0
1002
}
1002
{
1000
PINS
1011
109.2571353155252
1021
9.2233720396894542E+020
1031
0.0
1021
99.152089228337246
1031
0.0
1002
}
1002
{
1000
PINS2
1011
139.2571353155252
1021
9.2233720396894542E+020
1031
0.0
1021
112.4020892283372
1031
0.0
1002
}
1002
{
1000
C
1070
     1
1002
}
1001
GENIUS_GENODEF_13
1002
{
1000
HIER
1070
     0
1002
}
1002
{
1000
MANEDIT
1070
     0
1002
}
1002
{
1000
NOSEL
1070
     0
1002
}
1002
{
1000
BEHIND
1070
     0
1002
}
1002
{
1000
REACTOR
1002
}
1001
GENIUS_GENOBJ-N-REC_13
1002
{
1000
OWNER
1000
GEN
1002
}
  0
LINE
  5
DBA
  8
WING
  6
HIDDEN
 62
     8
 10
112.5071353155252
 20
98.994451433337247
 30
0.0
 11
128.70615669238259
 21
98.994451433337275
 31
0.0
1001
GENIUS_GENREC_14
1002
{
1000
PYDIR
1011
109.2571353155252
1021
9.2233720396894542E+020
1031
0.0
1021
112.4020892283372
1031
0.0
1002
}
1002
{
1000
PXDIR
1011
139.2571353155252
1021
9.2233720396894542E+020
1031
0.0
1021
99.152089228337246
1031
0.0
1002
}
1002
{
1000
PORI
1011
109.2571353155252
1021
9.2233720396894542E+020
1031
0.0
1021
99.152089228337246
1031
0.0
1002
}
1002
{
1000
PINS
1011
109.2571353155252
1021
9.2233720396894542E+020
1031
0.0
1021
99.152089228337246
1031
0.0
1002
}
1002
{
1000
PINS2
1011
139.2571353155252
1021
9.2233720396894542E+020
1031
0.0
1021
112.4020892283372
1031
0.0
1002
}
1002
{
1000
C
1070
     1
1002
}
1001
GENIUS_GENODEF_13
1002
{
1000
HIER
1070
     0
1002
}
1002
{
1000
MANEDIT
1070
     0
1002
}
1002
{
1000
NOSEL
1070
     0
1002
}
1002
{
1000
BEHIND
1070
     0
1002
}
1002
{
1000
REACTOR
1002
}
1001
GENIUS_GENOBJ-N-REC_13
1002
{
1000
OWNER
1000
GEN
1002
}
  0
LINE
  5
DBE
  8
WING
  6
HIDDEN
 62
     8
 10
112.5071353155252
 20
98.836951433337234
 30
0.0
 11
127.22115669238281
 21
98.836951433337234
 31
0.0
1001
GENIUS_GENREC_14
1002
{
1000
PYDIR
1011
109.2571353155252
1021
9.2233720396894542E+020
1031
0.0
1021
112.4020892283372
1031
0.0
1002
}
1002
{
1000
PXDIR
1011
139.2571353155252
1021
9.2233720396894542E+020
1031
0.0
1021
99.152089228337246
1031
0.0
1002
}
1002
{
1000
PORI
1011
109.2571353155252
1021
9.2233720396894542E+020
1031
0.0
1021
99.152089228337246
1031
0.0
1002
}
1002
{
1000
PINS
1011
109.2571353155252
1021
9.2233720396894542E+020
1031
0.0
1021
99.152089228337246
1031
0.0
1002
}
1002
{
1000
PINS2
1011
139.2571353155252
1021
9.2233720396894542E+020
1031
0.0
1021
112.4020892283372
1031
0.0
1002
}
1002
{
1000
C
1070
     1
1002
}
1001
GENIUS_GENODEF_13
1002
{
1000
HIER
1070
     0
1002
}
1002
{
1000
MANEDIT
1070
     0
1002
}
1002
{
1000
NOSEL
1070
     0
1002
}
1002
{
1000
BEHIND
1070
     0
1002
}
1002
{
1000
REACTOR
1002
}
1001
GENIUS_GENOBJ-N-REC_13
1002
{
1000
OWNER
1000
GEN
1002
}
  0
LINE
  5
DC6
  8
WING
 62
     8
 10
112.5071353155252
 20
100.41195143333719
 30
0.0
 11
134.2571353155252
 21
100.41195143333719
 31
0.0
1001
GENIUS_GENREC_14
1002
{
1000
PYDIR
1011
109.2571353155252
1021
9.2233720396894542E+020
1031
0.0
1021
112.4020892283372
1031
0.0
1002
}
1002
{
1000
PXDIR
1011
139.2571353155252
1021
9.2233720396894542E+020
1031
0.0
1021
99.152089228337246
1031
0.0
1002
}
1002
{
1000
PORI
1011
109.2571353155252
1021
9.2233720396894542E+020
1031
0.0
1021
99.152089228337246
1031
0.0
1002
}
1002
{
1000
PINS
1011
109.2571353155252
1021
9.2233720396894542E+020
1031
0.0
1021
99.152089228337246
1031
0.0
1002
}
1002
{
1000
PINS2
1011
139.2571353155252
1021
9.2233720396894542E+020
1031
0.0
1021
112.4020892283372
1031
0.0
1002
}
1002
{
1000
C
1070
     1
1002
}
1001
GENIUS_GENODEF_13
1002
{
1000
HIER
1070
     0
1002
}
1002
{
1000
MANEDIT
1070
     0
1002
}
1002
{
1000
NOSEL
1070
     0
1002
}
1002
{
1000
BEHIND
1070
     0
1002
}
1002
{
1000
REACTOR
1002
}
1001
GENIUS_GENOBJ-N-REC_13
1002
{
1000
OWNER
1000
GEN
1002
}
  0
LINE
  5
DCA
  8
FUSELAGE
  6
HIDDEN
 62
     8
 10
126.0071353155252
 20
100.56945143333721
 30
0.0
 11
134.2571353155252
 21
100.56945143333721
 31
0.0
1001
GENIUS_GENREC_14
1002
{
1000
PYDIR
1011
109.2571353155252
1021
9.2233720396894542E+020
1031
0.0
1021
112.4020892283372
1031
0.0
1002
}
1002
{
1000
PXDIR
1011
139.2571353155252
1021
9.2233720396894542E+020
1031
0.0
1021
99.152089228337246
1031
0.0
1002
}
1002
{
1000
PORI
1011
109.2571353155252
1021
9.2233720396894542E+020
1031
0.0
1021
99.152089228337246
1031
0.0
1002
}
1002
{
1000
PINS
1011
109.2571353155252
1021
9.2233720396894542E+020
1031
0.0
1021
99.152089228337246
1031
0.0
1002
}
1002
{
1000
PINS2
1011
139.2571353155252
1021
9.2233720396894542E+020
1031
0.0
1021
112.4020892283372
1031
0.0
1002
}
1002
{
1000
C
1070
     1
1002
}
1001
GENIUS_GENODEF_13
1002
{
1000
HIER
1070
     0
1002
}
1002
{
1000
MANEDIT
1070
     0
1002
}
1002
{
1000
NOSEL
1070
     0
1002
}
1002
{
1000
BEHIND
1070
     0
1002
}
1002
{
1000
REACTOR
1002
}
1001
GENIUS_GENOBJ-N-REC_13
1002
{
1000
OWNER
1000
GEN
1002
}
  0
LINE
  5
DCE
  8
WING
  6
HIDDEN
 62
     8
 10
112.5071353155252
 20
100.72695143333721
 30
0.0
 11
134.2571353155252
 21
100.72695143333721
 31
0.0
1001
GENIUS_GENREC_14
1002
{
1000
PYDIR
1011
109.2571353155252
1021
9.2233720396894542E+020
1031
0.0
1021
112.4020892283372
1031
0.0
1002
}
1002
{
1000
PXDIR
1011
139.2571353155252
1021
9.2233720396894542E+020
1031
0.0
1021
99.152089228337246
1031
0.0
1002
}
1002
{
1000
PORI
1011
109.2571353155252
1021
9.2233720396894542E+020
1031
0.0
1021
99.152089228337246
1031
0.0
1002
}
1002
{
1000
PINS
1011
109.2571353155252
1021
9.2233720396894542E+020
1031
0.0
1021
99.152089228337246
1031
0.0
1002
}
1002
{
1000
PINS2
1011
139.2571353155252
1021
9.2233720396894542E+020
1031
0.0
1021
112.4020892283372
1031
0.0
1002
}
1002
{
1000
C
1070
     1
1002
}
1001
GENIUS_GENODEF_13
1002
{
1000
HIER
1070
     0
1002
}
1002
{
1000
MANEDIT
1070
     0
1002
}
1002
{
1000
NOSEL
1070
     0
1002
}
1002
{
1000
BEHIND
1070
     0
1002
}
1002
{
1000
REACTOR
1002
}
1001
GENIUS_GENOBJ-N-REC_13
1002
{
1000
OWNER
1000
GEN
1002
}
  0
LINE
  5
DD2
  8
WING
  6
HIDDEN
 62
     8
 10
112.5071353155252
 20
100.8844514333372
 30
0.0
 11
134.2571353155252
 21
100.8844514333372
 31
0.0
1001
GENIUS_GENREC_14
1002
{
1000
PYDIR
1011
109.2571353155252
1021
9.2233720396894542E+020
1031
0.0
1021
112.4020892283372
1031
0.0
1002
}
1002
{
1000
PXDIR
1011
139.2571353155252
1021
9.2233720396894542E+020
1031
0.0
1021
99.152089228337246
1031
0.0
1002
}
1002
{
1000
PORI
1011
109.2571353155252
1021
9.2233720396894542E+020
1031
0.0
1021
99.152089228337246
1031
0.0
1002
}
1002
{
1000
PINS
1011
109.2571353155252
1021
9.2233720396894542E+020
1031
0.0
1021
99.152089228337246
1031
0.0
1002
}
1002
{
1000
PINS2
1011
139.2571353155252
1021
9.2233720396894542E+020
1031
0.0
1021
112.4020892283372
1031
0.0
1002
}
1002
{
1000
C
1070
     1
1002
}
1001
GENIUS_GENODEF_13
1002
{
1000
HIER
1070
     0
1002
}
1002
{
1000
MANEDIT
1070
     0
1002
}
1002
{
1000
NOSEL
1070
     0
1002
}
1002
{
1000
BEHIND
1070
     0
1002
}
1002
{
1000
REACTOR
1002
}
1001
GENIUS_GENOBJ-N-REC_13
1002
{
1000
OWNER
1000
GEN
1002
}
  0
LINE
  5
DD6
  8
WING
  6
HIDDEN
 62
     8
 10
112.5071353155252
 20
101.0419514333372
 30
0.0
 11
134.2571353155252
 21
101.0419514333372
 31
0.0
1001
GENIUS_GENREC_14
1002
{
1000
PYDIR
1011
109.2571353155252
1021
9.2233720396894542E+020
1031
0.0
1021
112.4020892283372
1031
0.0
1002
}
1002
{
1000
PXDIR
1011
139.2571353155252
1021
9.2233720396894542E+020
1031
0.0
1021
99.152089228337246
1031
0.0
1002
}
1002
{
1000
PORI
1011
109.2571353155252
1021
9.2233720396894542E+020
1031
0.0
1021
99.152089228337246
1031
0.0
1002
}
1002
{
1000
PINS
1011
109.2571353155252
1021
9.2233720396894542E+020
1031
0.0
1021
99.152089228337246
1031
0.0
1002
}
1002
{
1000
PINS2
1011
139.2571353155252
1021
9.2233720396894542E+020
1031
0.0
1021
112.4020892283372
1031
0.0
1002
}
1002
{
1000
C
1070
     1
1002
}
1001
GENIUS_GENODEF_13
1002
{
1000
HIER
1070
     0
1002
}
1002
{
1000
MANEDIT
1070
     0
1002
}
1002
{
1000
NOSEL
1070
     0
1002
}
1002
{
1000
BEHIND
1070
     0
1002
}
1002
{
1000
REACTOR
1002
}
1001
GENIUS_GENOBJ-N-REC_13
1002
{
1000
OWNER
1000
GEN
1002
}
  0
LINE
  5
DDA
  8
WING
  6
HIDDEN
 62
     8
 10
112.5071353155252
 20
101.1994514333372
 30
0.0
 11
133.1609710815253
 21
101.1994514333372
 31
0.0
1001
GENIUS_GENREC_14
1002
{
1000
PYDIR
1011
109.2571353155252
1021
9.2233720396894542E+020
1031
0.0
1021
112.4020892283372
1031
0.0
1002
}
1002
{
1000
PXDIR
1011
139.2571353155252
1021
9.2233720396894542E+020
1031
0.0
1021
99.152089228337246
1031
0.0
1002
}
1002
{
1000
PORI
1011
109.2571353155252
1021
9.2233720396894542E+020
1031
0.0
1021
99.152089228337246
1031
0.0
1002
}
1002
{
1000
PINS
1011
109.2571353155252
1021
9.2233720396894542E+020
1031
0.0
1021
99.152089228337246
1031
0.0
1002
}
1002
{
1000
PINS2
1011
139.2571353155252
1021
9.2233720396894542E+020
1031
0.0
1021
112.4020892283372
1031
0.0
1002
}
1002
{
1000
C
1070
     1
1002
}
1001
GENIUS_GENODEF_13
1002
{
1000
HIER
1070
     0
1002
}
1002
{
1000
MANEDIT
1070
     0
1002
}
1002
{
1000
NOSEL
1070
     0
1002
}
1002
{
1000
BEHIND
1070
     0
1002
}
1002
{
1000
REACTOR
1002
}
1001
GENIUS_GENOBJ-N-REC_13
1002
{
1000
OWNER
1000
GEN
1002
}
  0
LINE
  5
DDE
  8
WING
  6
HIDDEN
 62
     8
 10
112.5071353155252
 20
101.3569514333372
 30
0.0
 11
131.67597108152529
 21
101.3569514333372
 31
0.0
1001
GENIUS_GENREC_14
1002
{
1000
PYDIR
1011
109.2571353155252
1021
9.2233720396894542E+020
1031
0.0
1021
112.4020892283372
1031
0.0
1002
}
1002
{
1000
PXDIR
1011
139.2571353155252
1021
9.2233720396894542E+020
1031
0.0
1021
99.152089228337246
1031
0.0
1002
}
1002
{
1000
PORI
1011
109.2571353155252
1021
9.2233720396894542E+020
1031
0.0
1021
99.152089228337246
1031
0.0
1002
}
1002
{
1000
PINS
1011
109.2571353155252
1021
9.2233720396894542E+020
1031
0.0
1021
99.152089228337246
1031
0.0
1002
}
1002
{
1000
PINS2
1011
139.2571353155252
1021
9.2233720396894542E+020
1031
0.0
1021
112.4020892283372
1031
0.0
1002
}
1002
{
1000
C
1070
     1
1002
}
1001
GENIUS_GENODEF_13
1002
{
1000
HIER
1070
     0
1002
}
1002
{
1000
MANEDIT
1070
     0
1002
}
1002
{
1000
NOSEL
1070
     0
1002
}
1002
{
1000
BEHIND
1070
     0
1002
}
1002
{
1000
REACTOR
1002
}
1001
GENIUS_GENOBJ-N-REC_13
1002
{
1000
OWNER
1000
GEN
1002
}
  0
LINE
  5
DE2
  8
WING
  6
HIDDEN
 62
     8
 10
112.5071353155252
 20
101.5144514333372
 30
0.0
 11
130.1909710815253
 21
101.5144514333372
 31
0.0
1001
GENIUS_GENREC_14
1002
{
1000
PYDIR
1011
109.2571353155252
1021
9.2233720396894542E+020
1031
0.0
1021
112.4020892283372
1031
0.0
1002
}
1002
{
1000
PXDIR
1011
139.2571353155252
1021
9.2233720396894542E+020
1031
0.0
1021
99.152089228337246
1031
0.0
1002
}
1002
{
1000
PORI
1011
109.2571353155252
1021
9.2233720396894542E+020
1031
0.0
1021
99.152089228337246
1031
0.0
1002
}
1002
{
1000
PINS
1011
109.2571353155252
1021
9.2233720396894542E+020
1031
0.0
1021
99.152089228337246
1031
0.0
1002
}
1002
{
1000
PINS2
1011
139.2571353155252
1021
9.2233720396894542E+020
1031
0.0
1021
112.4020892283372
1031
0.0
1002
}
1002
{
1000
C
1070
     1
1002
}
1001
GENIUS_GENODEF_13
1002
{
1000
HIER
1070
     0
1002
}
1002
{
1000
MANEDIT
1070
     0
1002
}
1002
{
1000
NOSEL
1070
     0
1002
}
1002
{
1000
BEHIND
1070
     0
1002
}
1002
{
1000
REACTOR
1002
}
1001
GENIUS_GENOBJ-N-REC_13
1002
{
1000
OWNER
1000
GEN
1002
}
  0
LINE
  5
DE6
  8
WING
  6
HIDDEN
 62
     8
 10
112.5071353155252
 20
101.6719514333372
 30
0.0
 11
128.7059710815254
 21
101.6719514333372
 31
0.0
1001
GENIUS_GENREC_14
1002
{
1000
PYDIR
1011
109.2571353155252
1021
9.2233720396894542E+020
1031
0.0
1021
112.4020892283372
1031
0.0
1002
}
1002
{
1000
PXDIR
1011
139.2571353155252
1021
9.2233720396894542E+020
1031
0.0
1021
99.152089228337246
1031
0.0
1002
}
1002
{
1000
PORI
1011
109.2571353155252
1021
9.2233720396894542E+020
1031
0.0
1021
99.152089228337246
1031
0.0
1002
}
1002
{
1000
PINS
1011
109.2571353155252
1021
9.2233720396894542E+020
1031
0.0
1021
99.152089228337246
1031
0.0
1002
}
1002
{
1000
PINS2
1011
139.2571353155252
1021
9.2233720396894542E+020
1031
0.0
1021
112.4020892283372
1031
0.0
1002
}
1002
{
1000
C
1070
     1
1002
}
1001
GENIUS_GENODEF_13
1002
{
1000
HIER
1070
     0
1002
}
1002
{
1000
MANEDIT
1070
     0
1002
}
1002
{
1000
NOSEL
1070
     0
1002
}
1002
{
1000
BEHIND
1070
     0
1002
}
1002
{
1000
REACTOR
1002
}
1001
GENIUS_GENOBJ-N-REC_13
1002
{
1000
OWNER
1000
GEN
1002
}
  0
LINE
  5
DEB
  8
WING
  6
HIDDEN
 62
     8
 10
112.5071353155252
 20
101.8294514333372
 30
0.0
 11
127.22097108152541
 21
101.8294514333372
 31
0.0
1001
GENIUS_GENREC_14
1002
{
1000
PYDIR
1011
109.2571353155252
1021
9.2233720396894542E+020
1031
0.0
1021
112.5595892283372
1031
0.0
1002
}
1002
{
1000
PXDIR
1011
139.2571353155252
1021
9.2233720396894542E+020
1031
0.0
1021
99.309589228337245
1031
0.0
1002
}
1002
{
1000
PORI
1011
109.2571353155252
1021
9.2233720396894542E+020
1031
0.0
1021
99.309589228337245
1031
0.0
1002
}
1002
{
1000
PINS
1011
109.2571353155252
1021
9.2233720396894542E+020
1031
0.0
1021
99.309589228337245
1031
0.0
1002
}
1002
{
1000
PINS2
1011
139.2571353155252
1021
9.2233720396894542E+020
1031
0.0
1021
112.5595892283372
1031
0.0
1002
}
1002
{
1000
C
1070
     1
1002
}
1001
GENIUS_GENODEF_13
1002
{
1000
HIER
1070
     0
1002
}
1002
{
1000
MANEDIT
1070
     0
1002
}
1002
{
1000
NOSEL
1070
     0
1002
}
1002
{
1000
BEHIND
1070
     0
1002
}
1002
{
1000
REACTOR
1002
}
1001
GENIUS_GENOBJ-N-REC_13
1002
{
1000
OWNER
1000
GEN
1002
}
  0
LINE
  5
DEC
  8
WING
 62
     8
 10
112.5071353155252
 20
100.0969514333372
 30
0.0
 11
126.0071353155252
 21
100.0969514333372
 31
0.0
1001
GENIUS_GENREC_14
1002
{
1000
PYDIR
1011
101.0071353155252
1021
9.2233720396894542E+020
1031
0.0
1021
112.2445892283372
1031
0.0
1002
}
1002
{
1000
PXDIR
1011
131.0071353155252
1021
9.2233720396894542E+020
1031
0.0
1021
98.994589228337233
1031
0.0
1002
}
1002
{
1000
PORI
1011
101.0071353155252
1021
9.2233720396894542E+020
1031
0.0
1021
98.994589228337233
1031
0.0
1002
}
1002
{
1000
PINS
1011
101.0071353155252
1021
9.2233720396894542E+020
1031
0.0
1021
98.994589228337233
1031
0.0
1002
}
1002
{
1000
PINS2
1011
131.0071353155252
1021
9.2233720396894542E+020
1031
0.0
1021
112.2445892283372
1031
0.0
1002
}
1002
{
1000
C
1070
     1
1002
}
1001
GENIUS_GENODEF_13
1002
{
1000
HIER
1070
     0
1002
}
1002
{
1000
MANEDIT
1070
     0
1002
}
1002
{
1000
NOSEL
1070
     0
1002
}
1002
{
1000
BEHIND
1070
     0
1002
}
1002
{
1000
REACTOR
1002
}
1001
GENIUS_GENOBJ-N-REC_13
1002
{
1000
OWNER
1000
GEN
1002
}
  0
LINE
  5
DED
  8
WING
 62
     8
 10
112.5071353155252
 20
100.56945143333721
 30
0.0
 11
126.0071353155252
 21
100.56945143333721
 31
0.0
1001
GENIUS_GENREC_14
1002
{
1000
PYDIR
1011
101.0071353155252
1021
9.2233720396894542E+020
1031
0.0
1021
112.7170892283372
1031
0.0
1002
}
1002
{
1000
PXDIR
1011
131.0071353155252
1021
9.2233720396894542E+020
1031
0.0
1021
99.467089228337244
1031
0.0
1002
}
1002
{
1000
PORI
1011
101.0071353155252
1021
9.2233720396894542E+020
1031
0.0
1021
99.467089228337244
1031
0.0
1002
}
1002
{
1000
PINS
1011
101.0071353155252
1021
9.2233720396894542E+020
1031
0.0
1021
99.467089228337244
1031
0.0
1002
}
1002
{
1000
PINS2
1011
131.0071353155252
1021
9.2233720396894542E+020
1031
0.0
1021
112.7170892283372
1031
0.0
1002
}
1002
{
1000
C
1070
     1
1002
}
1001
GENIUS_GENODEF_13
1002
{
1000
HIER
1070
     0
1002
}
1002
{
1000
MANEDIT
1070
     0
1002
}
1002
{
1000
NOSEL
1070
     0
1002
}
1002
{
1000
BEHIND
1070
     0
1002
}
1002
{
1000
REACTOR
1002
}
1001
GENIUS_GENOBJ-N-REC_13
1002
{
1000
OWNER
1000
GEN
1002
}
  0
SOLID
  5
DEE
  8
WING
 62
     8
 10
112.5071353155252
 20
100.0969514333372
 30
0.0
 11
112.5071353155252
 21
100.25445143333719
 31
0.0
 12
126.0071353155252
 22
100.0969514333372
 32
0.0
 13
126.0071353155252
 23
100.25445143333719
 33
0.0
  0
SOLID
  5
DEF
  8
WING
 62
     8
 10
112.5071353155252
 20
100.25445143333719
 30
0.0
 11
112.5071353155252
 21
100.41195143333719
 31
0.0
 12
134.2571353155252
 22
100.25445143333719
 32
0.0
 13
134.2571353155252
 23
100.41195143333719
 33
0.0
  0
SOLID
  5
DF0
  8
WING
 62
     8
 10
112.5071353155252
 20
100.41195143333719
 30
0.0
 11
112.5071353155252
 21
100.56945143333721
 31
0.0
 12
126.0071353155252
 22
100.41195143333719
 32
0.0
 13
126.0071353155252
 23
100.56945143333721
 33
0.0
  0
DIMENSION
  5
DF1
  8
DIM
  2
*D32
 10
139.31271183255799
 20
108.32328730938509
 30
0.0
 11
124.1268342058913
 21
108.32328730938509
 31
0.0
 70
     0
 13
108.9409565792247
 23
106.0923980603657
 33
0.0
 14
139.31271183255799
 24
102.89325005378321
 34
0.0
  0
DIMENSION
  5
E1D
  8
DIM
  2
*D33
 10
139.2571353155252
 20
90.604506871985905
 30
0.0
 11
124.2571353155252
 21
90.604506871985905
 31
0.0
 70
     0
 13
109.2571353155252
 23
96.708191590337279
 33
0.0
 14
139.2571353155252
 24
98.083191590337265
 34
0.0
  0
DIMENSION
  5
E2B
  8
DIM
  2
*D34
 10
106.81206315712799
 20
101.95819159033719
 30
0.0
 11
106.81206315712799
 21
100.33319159033719
 31
0.0
 70
   128
 13
109.2571353155252
 23
98.708191590337236
 33
0.0
 14
109.2571353155252
 24
101.95819159033719
 34
0.0
 50
90.0
1001
ACAD
1000
DSTYLE
1002
{
1070
   147
1040
0.0625
1002
}
  0
DIMENSION
  5
E43
  8
DIM
  2
*D35
 10
107.7336424581019
 20
96.708191590337279
 30
0.0
 11
107.7336424581019
 21
97.708191590337293
 31
0.0
 70
     0
 13
109.2571353155252
 23
98.708191590337236
 33
0.0
 14
109.2571353155252
 24
96.708191590337279
 34
0.0
 50
90.0
  0
DIMENSION
  5
E51
  8
DIM
  2
*D36
 10
121.0071353155252
 20
98.708191590337222
 30
0.0
 11
121.0071353155252
 21
97.208191590337236
 31
0.0
 70
   128
 13
121.0071353155252
 23
95.708191590337236
 33
0.0
 14
121.0071353155252
 24
98.708191590337222
 34
0.0
 50
90.0
1001
ACAD
1000
DSTYLE
1002
{
1070
    76
1070
     1
1070
    75
1070
     1
1002
}
  0
DIMENSION
  5
E82
  8
DIM
  2
*D37
 10
109.2571353155252
 20
97.851703035407525
 30
0.0
 11
110.8821353155252
 21
97.851703035407525
 31
0.0
 70
   128
 13
112.5071353155252
 23
98.708191590337236
 33
0.0
 14
109.2571353155252
 24
98.708191590337236
 34
0.0
1001
ACAD
1000
DSTYLE
1002
{
1070
   147
1040
0.0625
1070
    76
1070
     1
1070
    75
1070
     1
1002
}
  0
LINE
  5
ECF
  8
WINGSADDLE
 10
112.7571353155252
 20
103.83319159033719
 30
0.0
 11
127.7571353155252
 21
103.83319159033719
 31
0.0
1001
GENIUS_GENREC_14
1002
{
1000
PYDIR
1011
109.2571353155252
1021
9.2233720396894542E+020
1031
0.0
1021
90.583191590337236
1031
0.0
1002
}
1002
{
1000
PXDIR
1011
139.2571353155252
1021
9.2233720396894542E+020
1031
0.0
1021
103.83319159033719
1031
0.0
1002
}
1002
{
1000
PORI
1011
116.0071353155252
1021
9.2233720396894542E+020
1031
0.0
1021
103.83319159033719
1031
0.0
1002
}
1002
{
1000
PINS
1011
116.0071353155252
1021
9.2233720396894542E+020
1031
0.0
1021
103.83319159033719
1031
0.0
1002
}
1002
{
1000
PINS2
1011
139.2571353155252
1021
9.2233720396894542E+020
1031
0.0
1021
90.583191590337236
1031
0.0
1002
}
1002
{
1000
C
1070
     1
1002
}
1001
GENIUS_GENODEF_13
1002
{
1000
HIER
1070
     0
1002
}
1002
{
1000
MANEDIT
1070
     0
1002
}
1002
{
1000
NOSEL
1070
     0
1002
}
1002
{
1000
BEHIND
1070
     0
1002
}
1002
{
1000
REACTOR
1002
}
1001
GENIUS_GENOBJ-N-REC_13
1002
{
1000
OWNER
1000
GEN
1002
}
  0
LINE
  5
ED0
  8
WINGSADDLE
 10
127.7571353155252
 20
103.83319159033719
 30
0.0
 11
127.7571353155252
 21
104.6445123450542
 31
0.0
1001
GENIUS_GENREC_14
1002
{
1000
PYDIR
1011
127.5071353155252
1021
9.2233720396894542E+020
1031
0.0
1021
96.95819159033725
1031
0.0
1002
}
1002
{
1000
PXDIR
1011
157.5071353155252
1021
9.2233720396894542E+020
1031
0.0
1021
110.20819159033719
1031
0.0
1002
}
1002
{
1000
PORI
1011
127.5071353155252
1021
9.2233720396894542E+020
1031
0.0
1021
110.20819159033719
1031
0.0
1002
}
1002
{
1000
PINS
1011
127.5071353155252
1021
9.2233720396894542E+020
1031
0.0
1021
110.20819159033719
1031
0.0
1002
}
1002
{
1000
PINS2
1011
157.5071353155252
1021
9.2233720396894542E+020
1031
0.0
1021
96.95819159033725
1031
0.0
1002
}
1002
{
1000
C
1070
     1
1002
}
1001
GENIUS_GENODEF_13
1002
{
1000
HIER
1070
     0
1002
}
1002
{
1000
MANEDIT
1070
     0
1002
}
1002
{
1000
NOSEL
1070
     0
1002
}
1002
{
1000
BEHIND
1070
     0
1002
}
1002
{
1000
REACTOR
1002
}
1001
GENIUS_GENOBJ-N-REC_13
1002
{
1000
OWNER
1000
GEN
1002
}
  0
LINE
  5
ED2
  8
WINGSADDLE
 10
112.7571353155252
 20
103.83319159033719
 30
0.0
 11
112.7571353155252
 21
104.4767101088557
 31
0.0
1001
GENIUS_GENREC_14
1002
{
1000
PYDIR
1011
112.5071353155252
1021
9.2233720396894542E+020
1031
0.0
1021
96.95819159033725
1031
0.0
1002
}
1002
{
1000
PXDIR
1011
142.5071353155252
1021
9.2233720396894542E+020
1031
0.0
1021
110.20819159033719
1031
0.0
1002
}
1002
{
1000
PORI
1011
112.5071353155252
1021
9.2233720396894542E+020
1031
0.0
1021
110.20819159033719
1031
0.0
1002
}
1002
{
1000
PINS
1011
112.5071353155252
1021
9.2233720396894542E+020
1031
0.0
1021
110.20819159033719
1031
0.0
1002
}
1002
{
1000
PINS2
1011
142.5071353155252
1021
9.2233720396894542E+020
1031
0.0
1021
96.95819159033725
1031
0.0
1002
}
1002
{
1000
C
1070
     1
1002
}
1001
GENIUS_GENODEF_13
1002
{
1000
HIER
1070
     0
1002
}
1002
{
1000
MANEDIT
1070
     0
1002
}
1002
{
1000
NOSEL
1070
     0
1002
}
1002
{
1000
BEHIND
1070
     0
1002
}
1002
{
1000
REACTOR
1002
}
1001
GENIUS_GENOBJ-N-REC_13
1002
{
1000
OWNER
1000
GEN
1002
}
  0
LINE
  5
ED3
  8
WINGSADDLE
 10
112.7571353155252
 20
104.4767101088557
 30
0.0
 11
116.0071353155252
 21
104.95819159033719
 31
0.0
1001
GENIUS_GENREC_14
1002
{
1000
PYDIR
1011
112.7940684225352
1021
9.2233720396894542E+020
1031
0.0
1021
90.708191590337236
1031
0.0
1002
}
1002
{
1000
PXDIR
1011
142.79406842253519
1021
9.2233720396894542E+020
1031
0.0
1021
103.95819159033719
1031
0.0
1002
}
1002
{
1000
PORI
1011
112.7571353155252
1021
9.2233720396894542E+020
1031
0.0
1021
104.4767101088557
1031
0.0
1002
}
1002
{
1000
PINS
1011
112.7571353155252
1021
9.2233720396894542E+020
1031
0.0
1021
104.4767101088557
1031
0.0
1002
}
1002
{
1000
PINS2
1011
142.79406842253519
1021
9.2233720396894542E+020
1031
0.0
1021
90.708191590337236
1031
0.0
1002
}
1002
{
1000
C
1070
     1
1002
}
1001
GENIUS_GENODEF_13
1002
{
1000
HIER
1070
     0
1002
}
1002
{
1000
MANEDIT
1070
     0
1002
}
1002
{
1000
NOSEL
1070
     0
1002
}
1002
{
1000
BEHIND
1070
     0
1002
}
1002
{
1000
REACTOR
1002
}
1001
GENIUS_GENOBJ-N-REC_13
1002
{
1000
OWNER
1000
GEN
1002
}
  0
ARC
  5
ED4
  8
WINGSADDLE
 10
121.0071353155251
 20
125.9151079381231
 30
0.0
 40
21.545123411298778
 50
256.58096454997172
 51
283.4190354500285
  0
LINE
  5
ED5
  8
WINGSADDLE
 10
127.7571353155252
 20
104.6445123450542
 30
0.0
 11
126.0071353155252
 21
104.95819159033719
 31
0.0
1001
GENIUS_GENREC_14
1002
{
1000
PYDIR
1011
127.5071353155252
1021
9.2233720396894542E+020
1031
0.0
1021
97.76951234505421
1031
0.0
1002
}
1002
{
1000
PXDIR
1011
157.5071353155252
1021
9.2233720396894542E+020
1031
0.0
1021
111.0195123450542
1031
0.0
1002
}
1002
{
1000
PORI
1011
127.5071353155252
1021
9.2233720396894542E+020
1031
0.0
1021
111.0195123450542
1031
0.0
1002
}
1002
{
1000
PINS
1011
127.5071353155252
1021
9.2233720396894542E+020
1031
0.0
1021
111.0195123450542
1031
0.0
1002
}
1002
{
1000
PINS2
1011
157.5071353155252
1021
9.2233720396894542E+020
1031
0.0
1021
97.76951234505421
1031
0.0
1002
}
1002
{
1000
C
1070
     1
1002
}
1001
GENIUS_GENODEF_13
1002
{
1000
HIER
1070
     0
1002
}
1002
{
1000
MANEDIT
1070
     0
1002
}
1002
{
1000
NOSEL
1070
     0
1002
}
1002
{
1000
BEHIND
1070
     0
1002
}
1002
{
1000
REACTOR
1002
}
1001
GENIUS_GENOBJ-N-REC_13
1002
{
1000
OWNER
1000
GEN
1002
}
  0
CIRCLE
  5
ED6
  8
WINGSADDLE
 10
115.1033432278663
 20
104.4143669979013
 30
0.0
 40
0.125
  0
CIRCLE
  5
ED7
  8
WINGSADDLE
 10
126.910927403184
 20
104.4143669979013
 30
0.0
 40
0.125
  0
DIMENSION
  5
ED8
  8
DIM
  2
*D38
 10
127.7571353155252
 20
103.30633145961799
 30
0.0
 11
120.2571353155252
 21
103.30633145961799
 31
0.0
 70
     0
 13
112.7571353155252
 23
103.83319159033719
 33
0.0
 14
127.7571353155252
 24
103.83319159033719
 34
0.0
1001
ACAD
1000
DSTYLE
1002
{
1070
    75
1070
     1
1002
}
  0
LINE
  5
EEF
  8
WINGSADDLE
 10
112.7571353155252
 20
96.833211276337224
 30
0.0
 11
127.7571353155252
 21
96.833211276337224
 31
0.0
1001
GENIUS_GENREC_14
1002
{
1000
PYDIR
1011
109.2571353155252
1021
9.2233720396894542E+020
1031
0.0
1021
110.0832112763372
1031
0.0
1002
}
1002
{
1000
PXDIR
1011
139.2571353155252
1021
9.2233720396894542E+020
1031
0.0
1021
96.833211276337252
1031
0.0
1002
}
1002
{
1000
PORI
1011
116.0071353155252
1021
9.2233720396894542E+020
1031
0.0
1021
96.833211276337252
1031
0.0
1002
}
1002
{
1000
PINS
1011
116.0071353155252
1021
9.2233720396894542E+020
1031
0.0
1021
96.833211276337252
1031
0.0
1002
}
1002
{
1000
PINS2
1011
139.2571353155252
1021
9.2233720396894542E+020
1031
0.0
1021
110.0832112763372
1031
0.0
1002
}
1002
{
1000
C
1070
     1
1002
}
1001
GENIUS_GENODEF_13
1002
{
1000
HIER
1070
     0
1002
}
1002
{
1000
MANEDIT
1070
     0
1002
}
1002
{
1000
NOSEL
1070
     0
1002
}
1002
{
1000
BEHIND
1070
     0
1002
}
1002
{
1000
REACTOR
1002
}
1001
GENIUS_GENOBJ-N-REC_13
1002
{
1000
OWNER
1000
GEN
1002
}
  0
CIRCLE
  5
EF0
  8
WINGSADDLE
 10
115.1033432278663
 20
96.252035868773163
 30
0.0
 40
0.125
  0
ARC
  5
EF1
  8
WINGSADDLE
 10
121.0071353155251
 20
74.751294928551346
 30
0.0
 40
21.545123411298778
 50
76.580964549971512
 51
103.4190354500282
  0
LINE
  5
EF2
  8
WINGSADDLE
 10
127.7571353155252
 20
96.833211276337224
 30
0.0
 11
127.7571353155252
 21
96.02189052162025
 31
0.0
1001
GENIUS_GENREC_14
1002
{
1000
PYDIR
1011
127.5071353155252
1021
9.2233720396894542E+020
1031
0.0
1021
103.7082112763372
1031
0.0
1002
}
1002
{
1000
PXDIR
1011
157.5071353155252
1021
9.2233720396894542E+020
1031
0.0
1021
90.458211276337238
1031
0.0
1002
}
1002
{
1000
PORI
1011
127.5071353155252
1021
9.2233720396894542E+020
1031
0.0
1021
90.458211276337238
1031
0.0
1002
}
1002
{
1000
PINS
1011
127.5071353155252
1021
9.2233720396894542E+020
1031
0.0
1021
90.458211276337238
1031
0.0
1002
}
1002
{
1000
PINS2
1011
157.5071353155252
1021
9.2233720396894542E+020
1031
0.0
1021
103.7082112763372
1031
0.0
1002
}
1002
{
1000
C
1070
     1
1002
}
1001
GENIUS_GENODEF_13
1002
{
1000
HIER
1070
     0
1002
}
1002
{
1000
MANEDIT
1070
     0
1002
}
1002
{
1000
NOSEL
1070
     0
1002
}
1002
{
1000
BEHIND
1070
     0
1002
}
1002
{
1000
REACTOR
1002
}
1001
GENIUS_GENOBJ-N-REC_13
1002
{
1000
OWNER
1000
GEN
1002
}
  0
CIRCLE
  5
EF3
  8
WINGSADDLE
 10
126.910927403184
 20
96.252035868773163
 30
0.0
 40
0.125
  0
LINE
  5
EF4
  8
WINGSADDLE
 10
112.7571353155252
 20
96.833211276337224
 30
0.0
 11
112.7571353155252
 21
96.189692757818705
 31
0.0
1001
GENIUS_GENREC_14
1002
{
1000
PYDIR
1011
112.5071353155252
1021
9.2233720396894542E+020
1031
0.0
1021
103.7082112763372
1031
0.0
1002
}
1002
{
1000
PXDIR
1011
142.5071353155252
1021
9.2233720396894542E+020
1031
0.0
1021
90.458211276337238
1031
0.0
1002
}
1002
{
1000
PORI
1011
112.5071353155252
1021
9.2233720396894542E+020
1031
0.0
1021
90.458211276337238
1031
0.0
1002
}
1002
{
1000
PINS
1011
112.5071353155252
1021
9.2233720396894542E+020
1031
0.0
1021
90.458211276337238
1031
0.0
1002
}
1002
{
1000
PINS2
1011
142.5071353155252
1021
9.2233720396894542E+020
1031
0.0
1021
103.7082112763372
1031
0.0
1002
}
1002
{
1000
C
1070
     1
1002
}
1001
GENIUS_GENODEF_13
1002
{
1000
HIER
1070
     0
1002
}
1002
{
1000
MANEDIT
1070
     0
1002
}
1002
{
1000
NOSEL
1070
     0
1002
}
1002
{
1000
BEHIND
1070
     0
1002
}
1002
{
1000
REACTOR
1002
}
1001
GENIUS_GENOBJ-N-REC_13
1002
{
1000
OWNER
1000
GEN
1002
}
  0
LINE
  5
EF5
  8
WINGSADDLE
 10
112.7571353155252
 20
96.189692757818705
 30
0.0
 11
116.0071353155252
 21
95.708211276337238
 31
0.0
1001
GENIUS_GENREC_14
1002
{
1000
PYDIR
1011
112.5071353155252
1021
9.2233720396894542E+020
1031
0.0
1021
103.0646927578187
1031
0.0
1002
}
1002
{
1000
PXDIR
1011
142.50713531552529
1021
9.2233720396894542E+020
1031
0.0
1021
89.814692757818733
1031
0.0
1002
}
1002
{
1000
PORI
1011
112.5071353155252
1021
9.2233720396894542E+020
1031
0.0
1021
89.814692757818733
1031
0.0
1002
}
1002
{
1000
PINS
1011
112.5071353155252
1021
9.2233720396894542E+020
1031
0.0
1021
89.814692757818733
1031
0.0
1002
}
1002
{
1000
PINS2
1011
142.50713531552529
1021
9.2233720396894542E+020
1031
0.0
1021
103.0646927578187
1031
0.0
1002
}
1002
{
1000
C
1070
     1
1002
}
1001
GENIUS_GENODEF_13
1002
{
1000
HIER
1070
     0
1002
}
1002
{
1000
MANEDIT
1070
     0
1002
}
1002
{
1000
NOSEL
1070
     0
1002
}
1002
{
1000
BEHIND
1070
     0
1002
}
1002
{
1000
REACTOR
1002
}
1001
GENIUS_GENOBJ-N-REC_13
1002
{
1000
OWNER
1000
GEN
1002
}
  0
LINE
  5
EF6
  8
WINGSADDLE
 10
126.0071353155252
 20
95.708191590337236
 30
0.0
 11
127.7571353155252
 21
96.02189052162025
 31
0.0
1001
GENIUS_GENREC_14
1002
{
1000
PYDIR
1011
124.2571353155253
1021
9.2233720396894542E+020
1031
0.0
1021
103.3783720031017
1031
0.0
1002
}
1002
{
1000
PXDIR
1011
154.25713531552529
1021
9.2233720396894542E+020
1031
0.0
1021
90.128372003101745
1031
0.0
1002
}
1002
{
1000
PORI
1011
124.2571353155253
1021
9.2233720396894542E+020
1031
0.0
1021
90.128372003101745
1031
0.0
1002
}
1002
{
1000
PINS
1011
124.2571353155253
1021
9.2233720396894542E+020
1031
0.0
1021
90.128372003101745
1031
0.0
1002
}
1002
{
1000
PINS2
1011
154.25713531552529
1021
9.2233720396894542E+020
1031
0.0
1021
103.3783720031017
1031
0.0
1002
}
1002
{
1000
C
1070
     1
1002
}
1001
GENIUS_GENODEF_13
1002
{
1000
HIER
1070
     0
1002
}
1002
{
1000
MANEDIT
1070
     0
1002
}
1002
{
1000
NOSEL
1070
     0
1002
}
1002
{
1000
BEHIND
1070
     0
1002
}
1002
{
1000
REACTOR
1002
}
1001
GENIUS_GENOBJ-N-REC_13
1002
{
1000
OWNER
1000
GEN
1002
}
  0
POLYLINE
  5
EFF
  8
DIM
 66
     1
 10
0.0
 20
0.0
 30
0.0
 70
     1
1001
GENIUS_GENREC_14
1002
{
1000
PYDIR
1011
142.335389082364
1021
9.2233720396894542E+020
1031
0.0
1021
100.4018104546261
1031
0.0
1002
}
1002
{
1000
PXDIR
1011
144.335389082364
1021
9.2233720396894542E+020
1031
0.0
1021
97.151810454626172
1031
0.0
1002
}
1002
{
1000
PORI
1011
142.335389082364
1021
9.2233720396894542E+020
1031
0.0
1021
97.151810454626172
1031
0.0
1002
}
1002
{
1000
PINS
1011
142.335389082364
1021
9.2233720396894542E+020
1031
0.0
1021
97.151810454626172
1031
0.0
1002
}
1002
{
1000
PINS2
1011
144.335389082364
1021
9.2233720396894542E+020
1031
0.0
1021
100.4018104546261
1031
0.0
1002
}
1002
{
1000
C
1070
     1
1002
}
1001
GENIUS_GENODEF_13
1002
{
1000
HIER
1070
     0
1002
}
1002
{
1000
MANEDIT
1070
     0
1002
}
1002
{
1000
NOSEL
1070
     0
1002
}
1002
{
1000
BEHIND
1070
     0
1002
}
1002
{
1000
REACTOR
1002
}
1001
GENIUS_GENOBJ-N-REC_13
1002
{
1000
OWNER
1000
GEN
1002
}
  0
VERTEX
  5
10E3
  8
DIM
 10
142.335389082364
 20
97.151810454626172
 30
0.0
  0
VERTEX
  5
10E4
  8
DIM
 10
144.335389082364
 20
97.151810454626172
 30
0.0
  0
VERTEX
  5
10E5
  8
DIM
 10
144.335389082364
 20
99.651810454626172
 30
0.0
 42
0.4142135623730951
  0
VERTEX
  5
10E6
  8
DIM
 10
143.585389082364
 20
100.4018104546261
 30
0.0
  0
VERTEX
  5
10E7
  8
DIM
 10
143.085389082364
 20
100.4018104546261
 30
0.0
 42
0.4142135623730951
  0
VERTEX
  5
10E8
  8
DIM
 10
142.335389082364
 20
99.651810454626172
 30
0.0
  0
SEQEND
  5
10E9
  8
DIM
  0
DIMENSION
  5
F03
  8
DIM
  2
*D39
 10
144.335389082364
 20
94.827360580656773
 30
0.0
 11
143.335389082364
 21
94.827360580656773
 31
0.0
 70
     0
 13
142.335389082364
 23
97.151810454626172
 33
0.0
 14
144.335389082364
 24
97.151810454626172
 34
0.0
  0
DIMENSION
  5
F11
  8
DIM
  2
*D40
 10
145.9686257279055
 20
100.4018104546261
 30
0.0
 11
145.96862572790539
 21
98.776810454626172
 31
0.0
 70
   128
 13
144.335389082364
 23
97.151810454626172
 33
0.0
 14
143.335389082364
 24
100.4018104546261
 34
0.0
 50
90.0
  0
DIMENSION
  5
F29
  8
DIM
  2
*D42
 10
145.9686257279055
 20
108.7468289436339
 30
0.0
 11
145.9686257279055
 21
106.8718289436339
 31
0.0
 70
   128
 13
144.335389082364
 23
104.9968289436339
 33
0.0
 14
143.335389082364
 24
108.7468289436339
 34
0.0
 50
90.0
  0
DIMENSION
  5
F2A
  8
DIM
  2
*D41
 10
144.335389082364
 20
103.5039242642161
 30
0.0
 11
143.335389082364
 21
103.5039242642161
 31
0.0
 70
     0
 13
142.335389082364
 23
104.9968289436339
 33
0.0
 14
144.335389082364
 24
104.9968289436339
 34
0.0
  0
POLYLINE
  5
F80
  8
DIM
 66
     1
 10
0.0
 20
0.0
 30
0.0
 70
     1
1001
GENIUS_GENREC_14
1002
{
1000
PYDIR
1011
142.835389082364
1021
9.2233720396894542E+020
1031
0.0
1021
108.2468289436339
1031
0.0
1002
}
1002
{
1000
PXDIR
1011
143.835389082364
1021
9.2233720396894542E+020
1031
0.0
1021
106.2468289436339
1031
0.0
1002
}
1002
{
1000
PORI
1011
142.835389082364
1021
9.2233720396894542E+020
1031
0.0
1021
106.2468289436339
1031
0.0
1002
}
1002
{
1000
PINS
1011
142.835389082364
1021
9.2233720396894542E+020
1031
0.0
1021
106.2468289436339
1031
0.0
1002
}
1002
{
1000
PINS2
1011
143.835389082364
1021
9.2233720396894542E+020
1031
0.0
1021
108.2468289436339
1031
0.0
1002
}
1002
{
1000
C
1070
     1
1002
}
1001
GENIUS_GENODEF_13
1002
{
1000
HIER
1070
     0
1002
}
1002
{
1000
MANEDIT
1070
     0
1002
}
1002
{
1000
NOSEL
1070
     0
1002
}
1002
{
1000
BEHIND
1070
     0
1002
}
1002
{
1000
REACTOR
1002
}
1001
GENIUS_GENOBJ-N-REC_13
1002
{
1000
OWNER
1000
GEN
1002
}
  0
VERTEX
  5
10FA
  8
DIM
 10
142.835389082364
 20
106.2468289436339
 30
0.0
  0
VERTEX
  5
10FB
  8
DIM
 10
143.835389082364
 20
106.2468289436339
 30
0.0
  0
VERTEX
  5
10FC
  8
DIM
 10
143.835389082364
 20
108.2468289436339
 30
0.0
  0
VERTEX
  5
10FD
  8
DIM
 10
142.835389082364
 20
108.2468289436339
 30
0.0
  0
SEQEND
  5
10FE
  8
DIM
  0
LINE
  5
F8B
  8
DIM
 10
142.522889082364
 20
104.9968289436339
 30
0.0
 11
144.147889082364
 21
104.9968289436339
 31
0.0
1001
GENIUS_GENREC_14
1002
{
1000
PYDIR
1011
142.335389082364
1021
9.2233720396894542E+020
1031
0.0
1021
108.7468289436339
1031
0.0
1002
}
1002
{
1000
PXDIR
1011
144.147889082364
1021
9.2233720396894542E+020
1031
0.0
1021
104.9968289436339
1031
0.0
1002
}
1002
{
1000
PORI
1011
142.522889082364
1021
9.2233720396894542E+020
1031
0.0
1021
104.9968289436339
1031
0.0
1002
}
1002
{
1000
PINS
1011
142.522889082364
1021
9.2233720396894542E+020
1031
0.0
1021
104.9968289436339
1031
0.0
1002
}
1002
{
1000
PINS2
1011
144.335389082364
1021
9.2233720396894542E+020
1031
0.0
1021
108.7468289436339
1031
0.0
1002
}
1002
{
1000
C
1070
     1
1002
}
1001
GENIUS_GENODEF_13
1002
{
1000
HIER
1070
     0
1002
}
1002
{
1000
MANEDIT
1070
     0
1002
}
1002
{
1000
NOSEL
1070
     0
1002
}
1002
{
1000
BEHIND
1070
     0
1002
}
1002
{
1000
REACTOR
1002
}
1001
GENIUS_GENOBJ-N-REC_13
1002
{
1000
OWNER
1000
GEN
1002
}
  0
LINE
  5
F8C
  8
DIM
 10
144.335389082364
 20
106.1218289436339
 30
0.0
 11
144.335389082364
 21
107.9968289436339
 31
0.0
1001
GENIUS_GENREC_14
1002
{
1000
PYDIR
1011
142.335389082364
1021
9.2233720396894542E+020
1031
0.0
1021
108.7468289436339
1031
0.0
1002
}
1002
{
1000
PXDIR
1011
144.335389082364
1021
9.2233720396894542E+020
1031
0.0
1021
106.1218289436339
1031
0.0
1002
}
1002
{
1000
PORI
1011
142.335389082364
1021
9.2233720396894542E+020
1031
0.0
1021
104.9968289436339
1031
0.0
1002
}
1002
{
1000
PINS
1011
142.335389082364
1021
9.2233720396894542E+020
1031
0.0
1021
104.9968289436339
1031
0.0
1002
}
1002
{
1000
PINS2
1011
144.335389082364
1021
9.2233720396894542E+020
1031
0.0
1021
108.7468289436339
1031
0.0
1002
}
1002
{
1000
C
1070
     1
1002
}
1001
GENIUS_GENODEF_13
1002
{
1000
HIER
1070
     0
1002
}
1002
{
1000
MANEDIT
1070
     0
1002
}
1002
{
1000
NOSEL
1070
     0
1002
}
1002
{
1000
BEHIND
1070
     0
1002
}
1002
{
1000
REACTOR
1002
}
1001
GENIUS_GENOBJ-N-REC_13
1002
{
1000
OWNER
1000
GEN
1002
}
  0
ARC
  5
F8D
  8
DIM
 10
143.585389082364
 20
107.9968289436339
 30
0.0
 40
0.75
 50
0.0
 51
90.0
1001
GENIUS_GENREC_14
1002
{
1000
PYDIR
1011
142.335389082364
1021
9.2233720396894542E+020
1031
0.0
1021
108.7468289436339
1031
0.0
1002
}
1002
{
1000
PXDIR
1011
144.335389082364
1021
9.2233720396894542E+020
1031
0.0
1021
104.9968289436339
1031
0.0
1002
}
1002
{
1000
PORI
1011
142.335389082364
1021
9.2233720396894542E+020
1031
0.0
1021
104.9968289436339
1031
0.0
1002
}
1002
{
1000
PINS
1011
142.335389082364
1021
9.2233720396894542E+020
1031
0.0
1021
104.9968289436339
1031
0.0
1002
}
1002
{
1000
PINS2
1011
144.335389082364
1021
9.2233720396894542E+020
1031
0.0
1021
108.7468289436339
1031
0.0
1002
}
1002
{
1000
C
1070
     1
1002
}
1001
GENIUS_GENODEF_13
1002
{
1000
HIER
1070
     0
1002
}
1002
{
1000
MANEDIT
1070
     0
1002
}
1002
{
1000
NOSEL
1070
     0
1002
}
1002
{
1000
BEHIND
1070
     0
1002
}
1002
{
1000
REACTOR
1002
}
1001
GENIUS_GENOBJ-N-REC_13
1002
{
1000
OWNER
1000
GEN
1002
}
  0
LINE
  5
F8E
  8
DIM
 10
143.585389082364
 20
108.7468289436339
 30
0.0
 11
143.085389082364
 21
108.7468289436339
 31
0.0
1001
GENIUS_GENREC_14
1002
{
1000
PYDIR
1011
142.335389082364
1021
9.2233720396894542E+020
1031
0.0
1021
108.7468289436339
1031
0.0
1002
}
1002
{
1000
PXDIR
1011
144.335389082364
1021
9.2233720396894542E+020
1031
0.0
1021
104.9968289436339
1031
0.0
1002
}
1002
{
1000
PORI
1011
142.335389082364
1021
9.2233720396894542E+020
1031
0.0
1021
104.9968289436339
1031
0.0
1002
}
1002
{
1000
PINS
1011
142.335389082364
1021
9.2233720396894542E+020
1031
0.0
1021
104.9968289436339
1031
0.0
1002
}
1002
{
1000
PINS2
1011
144.335389082364
1021
9.2233720396894542E+020
1031
0.0
1021
108.7468289436339
1031
0.0
1002
}
1002
{
1000
C
1070
     1
1002
}
1001
GENIUS_GENODEF_13
1002
{
1000
HIER
1070
     0
1002
}
1002
{
1000
MANEDIT
1070
     0
1002
}
1002
{
1000
NOSEL
1070
     0
1002
}
1002
{
1000
BEHIND
1070
     0
1002
}
1002
{
1000
REACTOR
1002
}
1001
GENIUS_GENOBJ-N-REC_13
1002
{
1000
OWNER
1000
GEN
1002
}
  0
ARC
  5
F8F
  8
DIM
 10
143.085389082364
 20
107.9968289436339
 30
0.0
 40
0.75
 50
90.0
 51
180.0
1001
GENIUS_GENREC_14
1002
{
1000
PYDIR
1011
142.335389082364
1021
9.2233720396894542E+020
1031
0.0
1021
108.7468289436339
1031
0.0
1002
}
1002
{
1000
PXDIR
1011
144.335389082364
1021
9.2233720396894542E+020
1031
0.0
1021
104.9968289436339
1031
0.0
1002
}
1002
{
1000
PORI
1011
142.335389082364
1021
9.2233720396894542E+020
1031
0.0
1021
104.9968289436339
1031
0.0
1002
}
1002
{
1000
PINS
1011
142.335389082364
1021
9.2233720396894542E+020
1031
0.0
1021
104.9968289436339
1031
0.0
1002
}
1002
{
1000
PINS2
1011
144.335389082364
1021
9.2233720396894542E+020
1031
0.0
1021
108.7468289436339
1031
0.0
1002
}
1002
{
1000
C
1070
     1
1002
}
1001
GENIUS_GENODEF_13
1002
{
1000
HIER
1070
     0
1002
}
1002
{
1000
MANEDIT
1070
     0
1002
}
1002
{
1000
NOSEL
1070
     0
1002
}
1002
{
1000
BEHIND
1070
     0
1002
}
1002
{
1000
REACTOR
1002
}
1001
GENIUS_GENOBJ-N-REC_13
1002
{
1000
OWNER
1000
GEN
1002
}
  0
LINE
  5
F90
  8
DIM
 10
142.335389082364
 20
107.9968289436339
 30
0.0
 11
142.335389082364
 21
106.1218289436339
 31
0.0
1001
GENIUS_GENREC_14
1002
{
1000
PYDIR
1011
142.335389082364
1021
9.2233720396894542E+020
1031
0.0
1021
108.7468289436339
1031
0.0
1002
}
1002
{
1000
PXDIR
1011
144.335389082364
1021
9.2233720396894542E+020
1031
0.0
1021
104.9968289436339
1031
0.0
1002
}
1002
{
1000
PORI
1011
142.335389082364
1021
9.2233720396894542E+020
1031
0.0
1021
106.1218289436339
1031
0.0
1002
}
1002
{
1000
PINS
1011
142.335389082364
1021
9.2233720396894542E+020
1031
0.0
1021
106.1218289436339
1031
0.0
1002
}
1002
{
1000
PINS2
1011
144.335389082364
1021
9.2233720396894542E+020
1031
0.0
1021
108.7468289436339
1031
0.0
1002
}
1002
{
1000
C
1070
     1
1002
}
1001
GENIUS_GENODEF_13
1002
{
1000
HIER
1070
     0
1002
}
1002
{
1000
MANEDIT
1070
     0
1002
}
1002
{
1000
NOSEL
1070
     0
1002
}
1002
{
1000
BEHIND
1070
     0
1002
}
1002
{
1000
REACTOR
1002
}
1001
GENIUS_GENOBJ-N-REC_13
1002
{
1000
OWNER
1000
GEN
1002
}
  0
LINE
  5
F92
  8
DIM
 10
144.147889082364
 20
104.9968289436339
 30
0.0
 11
144.147889082364
 21
106.1218289436339
 31
0.0
1001
GENIUS_GENREC_14
1002
{
1000
PYDIR
1011
142.335389082364
1021
9.2233720396894542E+020
1031
0.0
1021
106.1218289436339
1031
0.0
1002
}
1002
{
1000
PXDIR
1011
142.522889082364
1021
9.2233720396894542E+020
1031
0.0
1021
104.9968289436339
1031
0.0
1002
}
1002
{
1000
PORI
1011
142.335389082364
1021
9.2233720396894542E+020
1031
0.0
1021
104.9968289436339
1031
0.0
1002
}
1002
{
1000
PINS
1011
142.335389082364
1021
9.2233720396894542E+020
1031
0.0
1021
104.9968289436339
1031
0.0
1002
}
1002
{
1000
PINS2
1011
142.522889082364
1021
9.2233720396894542E+020
1031
0.0
1021
106.1218289436339
1031
0.0
1002
}
1002
{
1000
C
1070
     1
1002
}
1001
GENIUS_GENODEF_13
1002
{
1000
HIER
1070
     0
1002
}
1002
{
1000
MANEDIT
1070
     0
1002
}
1002
{
1000
NOSEL
1070
     0
1002
}
1002
{
1000
BEHIND
1070
     0
1002
}
1002
{
1000
REACTOR
1002
}
1001
GENIUS_GENOBJ-N-REC_13
1002
{
1000
OWNER
1000
GEN
1002
}
  0
LINE
  5
F93
  8
DIM
 10
144.147889082364
 20
106.1218289436339
 30
0.0
 11
144.335389082364
 21
106.1218289436339
 31
0.0
1001
GENIUS_GENREC_14
1002
{
1000
PYDIR
1011
142.335389082364
1021
9.2233720396894542E+020
1031
0.0
1021
106.1218289436339
1031
0.0
1002
}
1002
{
1000
PXDIR
1011
142.522889082364
1021
9.2233720396894542E+020
1031
0.0
1021
104.9968289436339
1031
0.0
1002
}
1002
{
1000
PORI
1011
142.335389082364
1021
9.2233720396894542E+020
1031
0.0
1021
104.9968289436339
1031
0.0
1002
}
1002
{
1000
PINS
1011
142.335389082364
1021
9.2233720396894542E+020
1031
0.0
1021
104.9968289436339
1031
0.0
1002
}
1002
{
1000
PINS2
1011
142.522889082364
1021
9.2233720396894542E+020
1031
0.0
1021
106.1218289436339
1031
0.0
1002
}
1002
{
1000
C
1070
     1
1002
}
1001
GENIUS_GENODEF_13
1002
{
1000
HIER
1070
     0
1002
}
1002
{
1000
MANEDIT
1070
     0
1002
}
1002
{
1000
NOSEL
1070
     0
1002
}
1002
{
1000
BEHIND
1070
     0
1002
}
1002
{
1000
REACTOR
1002
}
1001
GENIUS_GENOBJ-N-REC_13
1002
{
1000
OWNER
1000
GEN
1002
}
  0
LINE
  5
F96
  8
DIM
 10
142.522889082364
 20
104.9968289436339
 30
0.0
 11
142.522889082364
 21
106.1218289436339
 31
0.0
1001
GENIUS_GENREC_14
1002
{
1000
PYDIR
1011
142.335389082364
1021
9.2233720396894542E+020
1031
0.0
1021
106.1218289436339
1031
0.0
1002
}
1002
{
1000
PXDIR
1011
142.522889082364
1021
9.2233720396894542E+020
1031
0.0
1021
104.9968289436339
1031
0.0
1002
}
1002
{
1000
PORI
1011
142.335389082364
1021
9.2233720396894542E+020
1031
0.0
1021
104.9968289436339
1031
0.0
1002
}
1002
{
1000
PINS
1011
142.335389082364
1021
9.2233720396894542E+020
1031
0.0
1021
104.9968289436339
1031
0.0
1002
}
1002
{
1000
PINS2
1011
142.522889082364
1021
9.2233720396894542E+020
1031
0.0
1021
106.1218289436339
1031
0.0
1002
}
1002
{
1000
C
1070
     1
1002
}
1001
GENIUS_GENODEF_13
1002
{
1000
HIER
1070
     0
1002
}
1002
{
1000
MANEDIT
1070
     0
1002
}
1002
{
1000
NOSEL
1070
     0
1002
}
1002
{
1000
BEHIND
1070
     0
1002
}
1002
{
1000
REACTOR
1002
}
1001
GENIUS_GENOBJ-N-REC_13
1002
{
1000
OWNER
1000
GEN
1002
}
  0
LINE
  5
F97
  8
DIM
 10
142.522889082364
 20
106.1218289436339
 30
0.0
 11
142.335389082364
 21
106.1218289436339
 31
0.0
1001
GENIUS_GENREC_14
1002
{
1000
PYDIR
1011
142.335389082364
1021
9.2233720396894542E+020
1031
0.0
1021
106.1218289436339
1031
0.0
1002
}
1002
{
1000
PXDIR
1011
142.522889082364
1021
9.2233720396894542E+020
1031
0.0
1021
104.9968289436339
1031
0.0
1002
}
1002
{
1000
PORI
1011
142.335389082364
1021
9.2233720396894542E+020
1031
0.0
1021
104.9968289436339
1031
0.0
1002
}
1002
{
1000
PINS
1011
142.335389082364
1021
9.2233720396894542E+020
1031
0.0
1021
104.9968289436339
1031
0.0
1002
}
1002
{
1000
PINS2
1011
142.522889082364
1021
9.2233720396894542E+020
1031
0.0
1021
106.1218289436339
1031
0.0
1002
}
1002
{
1000
C
1070
     1
1002
}
1001
GENIUS_GENODEF_13
1002
{
1000
HIER
1070
     0
1002
}
1002
{
1000
MANEDIT
1070
     0
1002
}
1002
{
1000
NOSEL
1070
     0
1002
}
1002
{
1000
BEHIND
1070
     0
1002
}
1002
{
1000
REACTOR
1002
}
1001
GENIUS_GENOBJ-N-REC_13
1002
{
1000
OWNER
1000
GEN
1002
}
  0
INSERT
  5
FA4
  8
DIM
  2
*U66
 10
0.0
 20
0.0
 30
0.0
  0
TEXT
  5
FA6
  8
DIM
 10
142.0160249205143
 20
101.1187525347581
 30
0.0
 40
0.5
  1
Firewall
  7
ROMANS
  0
POLYLINE
  5
FAF
  8
DIM
 66
     1
 10
0.0
 20
0.0
 30
0.0
 70
     1
1001
GENIUS_GENREC_14
1002
{
1000
PYDIR
1011
141.8201100520136
1021
9.2233720396894542E+020
1031
0.0
1021
91.309093111323165
1031
0.0
1002
}
1002
{
1000
PXDIR
1011
144.8201100520136
1021
9.2233720396894542E+020
1031
0.0
1021
90.855352954323166
1031
0.0
1002
}
1002
{
1000
PORI
1011
141.8201100520136
1021
9.2233720396894542E+020
1031
0.0
1021
90.559093111323165
1031
0.0
1002
}
1002
{
1000
PINS
1011
141.8201100520136
1021
9.2233720396894542E+020
1031
0.0
1021
90.559093111323165
1031
0.0
1002
}
1002
{
1000
PINS2
1011
144.8201100520136
1021
9.2233720396894542E+020
1031
0.0
1021
91.012833268323163
1031
0.0
1002
}
1002
{
1000
C
1070
     1
1002
}
1001
GENIUS_GENODEF_13
1002
{
1000
HIER
1070
     0
1002
}
1002
{
1000
MANEDIT
1070
     0
1002
}
1002
{
1000
NOSEL
1070
     0
1002
}
1002
{
1000
BEHIND
1070
     0
1002
}
1002
{
1000
REACTOR
1002
}
1001
GENIUS_GENOBJ-N-REC_13
1002
{
1000
OWNER
1000
GEN
1002
}
  0
VERTEX
  5
1104
  8
DIM
 10
141.8201100520136
 20
90.559093111323165
 30
0.0
  0
VERTEX
  5
1105
  8
DIM
 10
144.8201100520136
 20
90.855352954323166
 30
0.0
  0
VERTEX
  5
1106
  8
DIM
 10
144.8201100520136
 20
91.012833268323163
 30
0.0
  0
VERTEX
  5
1107
  8
DIM
 10
141.8201100520136
 20
91.309093111323165
 30
0.0
  0
SEQEND
  5
1108
  8
DIM
  0
DIMENSION
  5
FB1
  8
DIM
  2
*D43
 10
144.8201100520136
 20
89.958346473999498
 30
0.0
 11
143.3201100520136
 21
89.958346473999498
 31
0.0
 70
   128
 13
141.8201100520136
 23
90.559093111323165
 33
0.0
 14
144.8201100520136
 24
90.855352954323166
 34
0.0
  0
DIMENSION
  5
FC9
  8
DIM
  2
*D44
 10
140.97029313392909
 20
90.559093111323165
 30
0.0
 11
140.97029313392909
 21
88.401950254180306
 31
0.0
 70
     0
 13
141.8201100520136
 23
91.309093111323165
 33
0.0
 14
141.8201100520136
 24
90.559093111323165
 34
0.0
 50
270.0
  0
DIMENSION
  5
FD7
  8
DIM
  2
*D45
 10
145.57154312485389
 20
90.855352954323166
 30
0.0
 11
145.57154312485389
 21
88.186305335275563
 31
0.0
 70
     0
  1
4mm
 13
144.8201100520136
 23
91.012833268323163
 33
0.0
 14
144.8201100520136
 24
90.855352954323166
 34
0.0
 50
270.0
  0
TEXT
  5
100D
  8
DIM
 10
141.52704370664151
 20
92.081672027093447
 30
0.0
 40
0.5
  1
Tail Mount
  7
ROMANS
  0
TEXT
  5
102C
  8
DIM
 10
119.36060892073939
 20
106.2260694814923
 30
0.0
 40
0.5
  1
Fuselage
  7
ROMANS
  0
INSERT
  5
102D
  8
DIM
  2
*U68
 10
0.0
 20
0.0
 30
0.0
  0
INSERT
  5
102E
  8
DIM
  2
*U69
 10
0.0
 20
0.0
 30
0.0
  0
TEXT
  5
102F
  8
DIM
 10
122.7381957793333
 20
131.2946442330007
 30
0.0
 40
0.5
  1
Ailerons
  7
ROMANS
  0
TEXT
  5
1030
  8
DIM
 10
129.11045798793339
 20
162.2561461049383
 30
0.0
 40
0.5
  1
Wing
  7
ROMANS
  0
ENDSEC
  0
EOF
